百度云资源论坛

 找回密码
 立即注册
搜索

[剧情片] 去年在马里昂巴德 Last.Year.at.Marienbad.1961.FRENCH.1080p.BluRay.x264.DTS-FGT 7. ...

[复制链接]
电影首发 发表于 2015-11-12 09:13:00 | 显示全部楼层 |阅读模式

译  名 去年在马里昂巴德/去年在马伦巴/去年在马里安巴/去年在马里昂巴
片  名 L'année dernière à Marienbad
年  代 1961
国  家 法国/意大利
类  别 剧情/爱情/悬疑
语  言 法语
上映日期 1961-06-25
片  长 94 分钟
导  演 阿伦·雷乃 Alain Resnais
主  演 德菲因·塞里格 Delphine Seyrig
      吉奥吉欧·艾伯塔基 Giorgio Albertazzi
      莎查·皮托夫 Sacha Pitoëff
      Françoise Bertin
      Luce Garcia-Ville
      Héléna Kornel
      弗朗索瓦丝·斯皮拉 Françoise Spira


简  介


  本片用一种现实与记忆穿插的方式勾勒了男主人公X(吉奥吉欧·艾伯塔基 Giorgio Albertazzi 饰)与女主人公A(德菲因·塞里格 Delphine Seyrig 饰)公剪不断理还乱的情感纠葛。X的记忆中对于巴洛克宫殿里的亭台楼阁如数家珍,在他的描述性旁白中,人们 得以感受到他内心巨大的波澜。在剧场舞台上,戏子正在表演着离愁别绪的桥段。观众席上X跟贵妇A对视良久。歇息之时,剧场响起舞曲,X向A邀舞,两人在近距离表达了对彼此的感受。A觉得这个X是个关注自己的陌生人,但是X却讲述了去年与她发生的一段鲜为人知的故事。期间,还穿插了X跟A丈夫M(莎查•皮托夫 Sacha Pitoëff 饰)游戏对决的场景……


获奖情况


  第35届奥斯卡金像奖 (1963)
  最佳原创剧本(提名) 阿兰·罗布-格里耶




Video
ID                                       : 1
Format                                   : AVC
Format/Info                              : Advanced Video Codec
Format profile                           : [email protected]
Format settings, CABAC                   : Yes
Format settings, ReFrames                : 5 frames
Codec ID                                 : V_MPEG4/ISO/AVC
Duration                                 : 1h 34mn
Bit rate                                 : 9 956 Kbps
Width                                    : 1 920 pixels
Height                                   : 818 pixels
Display aspect ratio                     : 2.35:1
Frame rate mode                          : Constant
Frame rate                               : 23.976 fps
Color space                              : YUV
Chroma subsampling                       : 4:2:0
Bit depth                                : 8 bits
Scan type                                : Progressive
Bits/(Pixel*Frame)                       : 0.264
Stream size                              : 6.45 GiB (91%)
Writing library                          : x264 core 142 r2431 ac76440
Encoding settings                        : cabac=1 / ref=5 / deblock=1:-3:-3 / analyse=0x3:0x133 / me=umh / subme=9 / psy=1 / psy_rd=1.00:0.00 / mixed_ref=1 / me_range=24 / chroma_me=1 / trellis=1 / 8x8dct=1 / cqm=0 / deadzone=21,11 / fast_pskip=0 / chroma_qp_offset=-2 / threads=4 / lookahead_threads=1 / sliced_threads=0 / nr=0 / decimate=0 / interlaced=0 / bluray_compat=0 / constrained_intra=0 / bframes=4 / b_pyramid=2 / b_adapt=2 / b_bias=0 / direct=1 / weightb=1 / open_gop=0 / weightp=2 / keyint=230 / keyint_min=23 / scenecut=40 / intra_refresh=0 / rc_lookahead=60 / rc=2pass / mbtree=1 / bitrate=9956 / ratetol=1.0 / qcomp=0.60 / qpmin=0 / qpmax=69 / qpstep=4 / cplxblur=20.0 / qblur=0.5 / vbv_maxrate=40000 / vbv_bufsize=30000 / nal_hrd=none / filler=0 / ip_ratio=1.40 / aq=1:1.00
Language                                 : French
Default                                  : Yes
Forced                                   : No

Audio
ID                                       : 2
Format                                   : DTS
Format/Info                              : Digital Theater Systems
Mode                                     : 16
Format settings, Endianness              : Big
Codec ID                                 : A_DTS
Duration                                 : 1h 34mn
Bit rate mode                            : Constant
Bit rate                                 : 768 Kbps
Channel(s)                               : 1 channel
Channel positions                        : Front: C
Sampling rate                            : 48.0 KHz
Bit depth                                : 24 bits
Compression mode                         : Lossy
Stream size                              : 520 MiB (7%)
Language                                 : French
Default                                  : Yes
Forced                                   : No

Text
ID                                       : 3
Format                                   : VobSub
Muxing mode                              : zlib
Codec ID                                 : S_VOBSUB
Codec ID/Info                            : Picture based subtitle format used on DVDs
Language                                 : English
Default                                  : Yes
Forced                                   : Yes

Menu
00:00:00.000                             : en:\"Along these corridors\"
00:08:38.184                             : en:After the play
00:12:18.154                             : en:Conversations
00:14:47.762                             : en:\"I can lose, but I always win\"
00:17:37.723                             : en:\"You hardly seem to remember\"
00:20:14.922                             : en:\"You must be mistaken\"
00:25:54.094                             : en:In the gardens at Frederiksbad
00:29:19.091                             : en:\"In your dreams?\"
00:32:34.452                             : en:A broken shoe
00:37:10.270                             : en:A broken glass
00:42:30.047                             : en:\"Leave me alone\"
00:46:52.018                             : en:\"Now you are here\"
00:51:21.412                             : en:\"You are afraid\"
00:56:18.125                             : en:The bedroom
01:00:46.810                             : en:\"It\'s impossible\"
01:05:12.784                             : en:Uncertainty
01:09:45.807                             : en:A photo
01:13:46.505                             : en:Alive
01:17:47.830                             : en:\"That room\"
01:21:53.951                             : en:\"A year is not long\"
01:27:25.115                             : en:\"Alone with me\"






                                                                                                                                                                                                       

                                                                                                                       
                                                                                                                                                                                                                                                        Last.Year.at.Marienbad.1961.FRENCH.1080p.BluRay.x264.DTS-FGT.torrent (71.65 KB, 下载次数: 0)

回复

使用道具 举报

小黑屋|百度云资源论坛 |网站地图

本网站所有资源来自网络,如无意中侵犯了您的权益,请发邮件至 [email protected],立即清除相关链接

GMT+8, 2020-11-25 13:28 , Processed in 0.105760 second(s), 23 queries .

Powered by Discuz! X3.2

© 2001-2013 Comsenz Inc.

快速回复 返回顶部 返回列表