百度云资源论坛

 找回密码
 立即注册
搜索

无主之地/无人地带 No.Mans.Land.2001.BOSNIAN.1080p.BluRay.x264.DTS-FGT 7.76GB ... ...

[复制链接]
电影首发 发表于 2015-11-12 09:13:00 | 显示全部楼层 |阅读模式

译  名 无主之地/无人地带/三不管地带/无人之地
片  名 No Man's Land
年  代 2001
国  家 波黑/斯洛文尼亚/意大利/法国/英国/比利时
类  别 喜剧/剧情/战争
语  言 英语/法语/波斯尼亚语/德语
上映日期 2001-05-12
片  长 98 分钟/Turkey: 90 分钟(TV version)
导  演 丹尼斯·塔诺维奇 Danis Tanovic
主  演 布兰科·德约里奇 Branko Djuric
      瑞内·比托拉贾奇 Rene Bitorajac
      Filip Sovagovic
      乔治斯·西蒂斯 Georges Siatidis
      凯特琳·卡特利吉 Katrin Cartlidge


简  介


  波塞战争期间。雾色中,一队波斯尼亚士兵向塞尔维亚阵地接近,不幸天明时被对方发现,波斯尼亚士兵西基(Branko Djuric 饰)中弹滚入战壕,战友则全部牺牲。塞方派出新兵尼诺(Rene Bitorajac 饰)在一老兵带领下检视战场,老兵将弹式地雷塞入波方士兵尸体下面充作陷阱,找到了武器的西基突然出现,击毙老兵后将尼诺俘虏。不久“尸体”突然醒转,西基看着地雷上的战友无能为力,只好与尼诺二人在波塞阵地之间的无主地带请求帮助。联合国维和部队接到求助赶到现场,维和高层领导本着避免麻烦的原则拒绝施救,英国女记者珍妮获得这一消息后借媒体力量对维和指挥部施压。但是维和部队与媒体的介入,并没能扭转混乱战争中的又一悲剧事件。
  本片获2002年奥斯卡最佳外语片奖等二十余项褒奖。


获奖情况


  第74届奥斯卡金像奖 (2002)
  最佳外语片


  第54届戛纳电影节 (2001)
  主竞赛单元 金棕榈奖(提名) 丹尼斯·塔诺维奇
  主竞赛单元 最佳编剧 丹尼斯·塔诺维奇




Video
ID                                       : 1
Format                                   : AVC
Format/Info                              : Advanced Video Codec
Format profile                           : [email protected]
Format settings, CABAC                   : Yes
Format settings, ReFrames                : 5 frames
Codec ID                                 : V_MPEG4/ISO/AVC
Duration                                 : 1h 37mn
Bit rate                                 : 9 896 Kbps
Width                                    : 1 920 pixels
Height                                   : 818 pixels
Display aspect ratio                     : 2.35:1
Frame rate mode                          : Constant
Frame rate                               : 23.976 fps
Color space                              : YUV
Chroma subsampling                       : 4:2:0
Bit depth                                : 8 bits
Scan type                                : Progressive
Bits/(Pixel*Frame)                       : 0.263
Stream size                              : 6.58 GiB (85%)
Writing library                          : x264 core 142 r2431 ac76440
Encoding settings                        : cabac=1 / ref=5 / deblock=1:-3:-3 / analyse=0x3:0x133 / me=umh / subme=9 / psy=1 / psy_rd=1.00:0.00 / mixed_ref=1 / me_range=24 / chroma_me=1 / trellis=1 / 8x8dct=1 / cqm=0 / deadzone=21,11 / fast_pskip=0 / chroma_qp_offset=-2 / threads=4 / lookahead_threads=1 / sliced_threads=0 / nr=0 / decimate=0 / interlaced=0 / bluray_compat=0 / constrained_intra=0 / bframes=4 / b_pyramid=2 / b_adapt=2 / b_bias=0 / direct=1 / weightb=1 / open_gop=0 / weightp=2 / keyint=230 / keyint_min=23 / scenecut=40 / intra_refresh=0 / rc_lookahead=60 / rc=2pass / mbtree=1 / bitrate=9896 / ratetol=1.0 / qcomp=0.60 / qpmin=0 / qpmax=69 / qpstep=4 / cplxblur=20.0 / qblur=0.5 / vbv_maxrate=40000 / vbv_bufsize=30000 / nal_hrd=none / filler=0 / ip_ratio=1.40 / aq=1:1.00
Language                                 : Bosnian
Default                                  : Yes
Forced                                   : No

Audio
ID                                       : 2
Format                                   : DTS
Format/Info                              : Digital Theater Systems
Mode                                     : 16
Format settings, Endianness              : Big
Codec ID                                 : A_DTS
Duration                                 : 1h 37mn
Bit rate mode                            : Constant
Bit rate                                 : 1 509 Kbps
Channel(s)                               : 2 channels
Channel positions                        : Front: L R
Sampling rate                            : 48.0 KHz
Bit depth                                : 16 bits
Compression mode                         : Lossy
Stream size                              : 1.03 GiB (13%)
Language                                 : Bosnian
Default                                  : Yes
Forced                                   : No

Text
ID                                       : 3
Format                                   : UTF-8
Codec ID                                 : S_TEXT/UTF8
Codec ID/Info                            : UTF-8 Plain Text
Language                                 : English
Default                                  : Yes
Forced                                   : Yes

Menu
00:00:00.000                             : :00:00:00.000
00:10:27.418                             : :00:10:27.418
00:22:41.777                             : :00:22:41.777
00:29:58.671                             : :00:29:58.671
00:40:45.693                             : :00:40:45.693
00:49:44.773                             : :00:49:44.773
01:00:47.268                             : :01:00:47.268
01:13:20.979                             : :01:13:20.979
01:28:03.444                             : :01:28:03.444





                                                                                                                                                                                                       

                                                                                                                       
                                                                                                                                                                                                                                                        No.Mans.Land.2001.BOSNIAN.1080p.BluRay.x264.DTS-FGT.torrent (78.24 KB, 下载次数: 0)

回复

使用道具 举报

小黑屋|百度云资源论坛 |网站地图

本网站所有资源来自网络,如无意中侵犯了您的权益,请发邮件至 [email protected],立即清除相关链接

GMT+8, 2020-9-27 20:48 , Processed in 0.101217 second(s), 23 queries .

Powered by Discuz! X3.2

© 2001-2013 Comsenz Inc.

快速回复 返回顶部 返回列表