百度云资源论坛

 找回密码
 立即注册
搜索

[喜剧片] 玩乐时间/游戏时间 Playtime.1967.FRENCH.1080p.BluRay.x264.DTS-FGT 9.98GB

[复制链接]
电影首发 发表于 2015-11-12 09:13:00 | 显示全部楼层 |阅读模式

译  名 玩乐时间/游戏时间
片  名 Play Time
年  代 1967
国  家 法国/意大利
类  别 喜剧
语  言 法语/英语/德语
上映日期 1967-12-16
片  长 France: 155 分钟(with intermission and exit music)/124 分钟(2002 restored version)/Sweden: 115 分钟
导  演 雅克·塔蒂 Jacques Tati
主  演 雅克·塔蒂 Jacques Tati
      Barbara Dennek
      Rita Maiden
      France Rumilly


简  介


  来到巴黎办事的于勒先生(雅克·塔蒂 Jacques Tati饰)初入巴黎就被超级现代化的世界博览会大楼所震惊。于勒先生很快就迷失在这座叹为观止的高科技大楼中,精妙绝伦的最新先进设备、流光溢彩的博览会景观以及来自世界各地的游客和顾客,都让于勒先生大开眼界。当于勒先生终于想起要去找办事的人时,天已渐黑。谈完公事,于勒先生来到了刚刚装修好的夜总会。午夜魅影,恍如白昼,里面的男男女女兴致正高。自然,于勒先生也加入了他们的狂欢队伍。于勒先生更一时兴起,把刚刚装修好的屋顶装饰弄了下来,屋内一片狼藉。怎知客人们非但没有觉得扫兴,反而玩得更加疯狂。旦夕之间已是清晨,狂欢一夜后的巴黎别有一番韵味。
  由法国著名喜剧导演雅克·塔蒂自编自导自演的喜剧影片《玩乐时间》,用一种接近单色的色调和70毫米的巨大画卷,将钢筋玻璃世界的冷酷转化成格格不入的超现实影像。本片几乎没有对白,但巧妙的运用了音效,加上演员肢体动作的表现,有着较为浓厚的早期默片风格。




Video
ID                                       : 1
Format                                   : AVC
Format/Info                              : Advanced Video Codec
Format profile                           : [email protected]
Format settings, CABAC                   : Yes
Format settings, ReFrames                : 4 frames
Codec ID                                 : V_MPEG4/ISO/AVC
Duration                                 : 2h 4mn
Bit rate                                 : 9 956 Kbps
Width                                    : 1 920 pixels
Height                                   : 1 038 pixels
Display aspect ratio                     : 1.85:1
Frame rate mode                          : Constant
Frame rate                               : 23.976 fps
Color space                              : YUV
Chroma subsampling                       : 4:2:0
Bit depth                                : 8 bits
Scan type                                : Progressive
Bits/(Pixel*Frame)                       : 0.208
Stream size                              : 8.47 GiB (85%)
Writing library                          : x264 core 146 r2538 121396c
Encoding settings                        : cabac=1 / ref=4 / deblock=1:-3:-3 / analyse=0x3:0x133 / me=umh / subme=9 / psy=1 / psy_rd=1.00:0.00 / mixed_ref=1 / me_range=24 / chroma_me=1 / trellis=1 / 8x8dct=1 / cqm=0 / deadzone=21,11 / fast_pskip=0 / chroma_qp_offset=-2 / threads=6 / lookahead_threads=1 / sliced_threads=0 / nr=0 / decimate=0 / interlaced=0 / bluray_compat=0 / constrained_intra=0 / bframes=4 / b_pyramid=2 / b_adapt=2 / b_bias=0 / direct=1 / weightb=1 / open_gop=0 / weightp=2 / keyint=230 / keyint_min=23 / scenecut=40 / intra_refresh=0 / rc_lookahead=60 / rc=2pass / mbtree=1 / bitrate=9956 / ratetol=1.0 / qcomp=0.60 / qpmin=0 / qpmax=69 / qpstep=4 / cplxblur=20.0 / qblur=0.5 / vbv_maxrate=40000 / vbv_bufsize=30000 / nal_hrd=none / filler=0 / ip_ratio=1.40 / aq=1:1.00
Language                                 : French
Default                                  : Yes
Forced                                   : No

Audio
ID                                       : 2
Format                                   : DTS
Format/Info                              : Digital Theater Systems
Mode                                     : 16
Format settings, Endianness              : Big
Codec ID                                 : A_DTS
Duration                                 : 2h 4mn
Bit rate mode                            : Constant
Bit rate                                 : 1 509 Kbps
Channel(s)                               : 2 channels
Channel positions                        : Front: L R
Sampling rate                            : 48.0 KHz
Bit depth                                : 24 bits
Compression mode                         : Lossy
Stream size                              : 1.31 GiB (13%)
Language                                 : French
Default                                  : Yes
Forced                                   : No

Text
ID                                       : 3
Format                                   : VobSub
Muxing mode                              : zlib
Codec ID                                 : S_VOBSUB
Codec ID/Info                            : Picture based subtitle format used on DVDs
Language                                 : English
Default                                  : Yes
Forced                                   : Yes

Menu
00:00:00.000                             : en:Opening titles
00:03:25.330                             : en:Arrival from Frankfurt
00:06:54.038                             : en:\"I feel at home everywhere I go\"
00:09:56.387                             : en:Tour bus
00:13:15.044                             : en:\"All these electrical thingamajigs!\"
00:16:58.267                             : en:The waiting room
00:21:45.178                             : en:A modern maze
00:30:25.281                             : en:Barbara sees the sights
00:33:24.836                             : en:\"Slam Your Doors in Golden Silence\"
00:37:52.812                             : en:Helpful Hulot
00:42:33.592                             : en:Hulot or no?
00:48:11.179                             : en:\"Schneller, from the army\"
00:58:08.234                             : en:Out on the town
01:01:06.412                             : en:Finishing touches
01:04:25.778                             : en:Open business
01:08:22.014                             : enroblematic poisson
01:14:53.947                             : en:How \"tourist\"
01:20:45.340                             : en:\"The army, remember?\"
01:25:38.967                             : en:The band steps in
01:29:45.129                             : en:Shall we dance?
01:35:28.889                             : en:Welcome to the club
01:41:54.775                             : en:Barbara entertains
01:51:36.439                             : en:\"I do love Paris\"
01:56:21.224                             : en:A souvenir





                                                                                                                                                                                                       

                                                                                                                       
                                                                                                                                                                                                                                                        Playtime.1967.FRENCH.1080p.BluRay.x264.DTS-FGT.torrent (100.4 KB, 下载次数: 0)

回复

使用道具 举报

小黑屋|百度云资源论坛 |网站地图

本网站所有资源来自网络,如无意中侵犯了您的权益,请发邮件至 [email protected],立即清除相关链接

GMT+8, 2020-9-28 08:02 , Processed in 0.108616 second(s), 23 queries .

Powered by Discuz! X3.2

© 2001-2013 Comsenz Inc.

快速回复 返回顶部 返回列表