百度云资源论坛

 找回密码
 立即注册
搜索

[剧情片] 逐梦奇迹/逐梦奇迹 Touching.Home.2008.1080p.BluRay.x264.DTS-FGT 5.69GB

[复制链接]
电影首发 发表于 2015-11-12 09:13:00 | 显示全部楼层 |阅读模式

译  名 逐梦奇迹/逐梦奇迹(台)
片  名 Touching Home
年  代 2008
国  家 美国
类  别 剧情
语  言 英语
上映日期 2009-09-20
片  长 108 分钟
导  演 Logan Miller / Noah Miller
主  演 Ed Harris
      Brad Dourif


简  介


  Logan和Noah这对双胞胎兄弟的父亲在狱中去世,两兄弟以这部自传性҉电影来纪念死去的爸爸,但两人没钱也没人脉,只好来到旧金山「堵」到艾德哈里斯,并费尽唇舌找到得奖连连的工作团队,剧本改编自兄弟的自传著作《Either You're In or You're in the Way》,除了艾德哈里斯以外,还有劳勃佛斯特、布莱德杜瑞夫、李梅薇德等人也参与演出这部关于家人之间的亲情联系与救赎的电影,Logan和Noah兄弟不仅导演更亲自演出两人现实生活中的经历。
  剧情描述一名拥有酗酒毛病的父亲,因总是烂醉误事,被世人放弃而失去尊严,而他的双胞胎儿子们,看到父亲被酒精一点一滴的吞噬灵魂,即使一再被父亲拖累,也永不放弃帮助父亲重新站起。不仅剧情感人至极,戏外导演们的为梦想努力的精神及传奇际遇更是令人敬佩,他们最后刷爆十九张信用卡,才完成这部梦想之作。




Video
ID                                       : 1
Format                                   : AVC
Format/Info                              : Advanced Video Codec
Format profile                           : [email protected]
Format settings, CABAC                   : Yes
Format settings, ReFrames                : 5 frames
Codec ID                                 : V_MPEG4/ISO/AVC
Duration                                 : 1h 51mn
Bit rate                                 : 5 635 Kbps
Width                                    : 1 920 pixels
Height                                   : 816 pixels
Display aspect ratio                     : 2.35:1
Frame rate mode                          : Constant
Frame rate                               : 23.976 fps
Color space                              : YUV
Chroma subsampling                       : 4:2:0
Bit depth                                : 8 bits
Scan type                                : Progressive
Bits/(Pixel*Frame)                       : 0.150
Stream size                              : 4.40 GiB (77%)
Writing library                          : x264 core 125 r2200 999b753
Encoding settings                        : cabac=1 / ref=5 / deblock=1:-1:-1 / analyse=0x3:0x113 / me=umh / subme=7 / psy=1 / psy_rd=1.00:0.15 / mixed_ref=1 / me_range=16 / chroma_me=1 / trellis=1 / 8x8dct=1 / cqm=0 / deadzone=21,11 / fast_pskip=0 / chroma_qp_offset=-3 / threads=18 / lookahead_threads=3 / sliced_threads=0 / nr=0 / decimate=1 / interlaced=0 / bluray_compat=0 / constrained_intra=0 / bframes=3 / b_pyramid=2 / b_adapt=1 / b_bias=0 / direct=1 / weightb=1 / open_gop=0 / weightp=2 / keyint=250 / keyint_min=23 / scenecut=40 / intra_refresh=0 / rc_lookahead=40 / rc=crf / mbtree=1 / crf=20.0 / qcomp=0.60 / qpmin=0 / qpmax=69 / qpstep=4 / ip_ratio=1.40 / aq=1:1.00
Language                                 : English
Default                                  : Yes
Forced                                   : No

Audio
ID                                       : 2
Format                                   : DTS
Format/Info                              : Digital Theater Systems
Mode                                     : 16
Format settings, Endianness              : Big
Codec ID                                 : A_DTS
Duration                                 : 1h 51mn
Bit rate mode                            : Constant
Bit rate                                 : 1 509 Kbps
Channel(s)                               : 6 channels
Channel positions                        : Front: L C R, Side: L R, LFE
Sampling rate                            : 48.0 KHz
Bit depth                                : 24 bits
Compression mode                         : Lossy
Stream size                              : 1.18 GiB (21%)
Language                                 : English
Default                                  : Yes
Forced                                   : No





                                                                                                                                                                                                       

                                                                                                                       
                                                                                                                                                                                                                                                        Touching.Home.2008.1080p.BluRay.x264.DTS-FGT.torrent (57.53 KB, 下载次数: 0)

回复

使用道具 举报

小黑屋|百度云资源论坛 |网站地图

本网站所有资源来自网络,如无意中侵犯了您的权益,请发邮件至 [email protected],立即清除相关链接

GMT+8, 2020-9-18 19:00 , Processed in 0.113861 second(s), 23 queries .

Powered by Discuz! X3.2

© 2001-2013 Comsenz Inc.

快速回复 返回顶部 返回列表