百度云资源论坛

 找回密码
 立即注册
搜索

[喜剧片] 圣诞故事 A.Christmas.Story.1983.1080p.BluRay.x264-FSiHD 6.56GB

[复制链接]
电影首发 发表于 2015-11-12 09:13:00 | 显示全部楼层 |阅读模式

译  名 圣诞故事
片  名 A Christmas Story
年  代 1983
国  家 美国/加拿大
类  别 喜剧/家庭
语  言 英语
上映日期 1984-12-13
片  长 94 分钟/USA: 93 分钟(20th Anniversary)
导  演 鲍勃·克拉克 Bob Clark
主  演 彼得·比灵斯雷 Peter Billingsley
      梅林达·狄龙 Melinda Dillon
      达伦·麦克加文 Darren McGavin


简  介


  四十年代,9岁的孩子拉尔夫认为圣诞节最完美的礼物就是一把Red Ryder BB gun,但是所有的人都认为这是非常危险的礼物,甚至不惜与老师,父母甚至圣诞老人对立。
  本片最有意思的是描写了一个孩子丰富的世界,很多地方让人不禁捧腹,又想到我们小时候。拉尔夫的独白是一位成年男子的声音,同样也有意思。




Video
ID                                       : 1
Format                                   : AVC
Format/Info                              : Advanced Video Codec
Format profile                           : [email protected]
Format settings, CABAC                   : Yes
Format settings, ReFrames                : 4 frames
Codec ID                                 : V_MPEG4/ISO/AVC
Duration                                 : 1h 33mn
Bit rate                                 : 9 865 Kbps
Width                                    : 1 920 pixels
Height                                   : 1 080 pixels
Display aspect ratio                     : 16:9
Frame rate mode                          : Constant
Frame rate                               : 23.976 fps
Color space                              : YUV
Chroma subsampling                       : 4:2:0
Bit depth                                : 8 bits
Scan type                                : Progressive
Bits/(Pixel*Frame)                       : 0.198
Stream size                              : 6.31 GiB (96%)
Writing library                          : x264 core 68 r1183M f21daff
Encoding settings                        : cabac=1 / ref=4 / deblock=1:0:0 / analyse=0x3:0x133 / me=tesa / subme=9 / psy_rd=1.0:0.0 / mixed_ref=1 / me_range=16 / chroma_me=1 / trellis=2 / 8x8dct=1 / cqm=0 / deadzone=21,11 / chroma_qp_offset=-2 / threads=6 / nr=0 / decimate=1 / mbaff=0 / bframes=3 / b_pyramid=1 / b_adapt=1 / b_bias=0 / direct=1 / wpredb=1 / keyint=250 / keyint_min=25 / scenecut=40 / rc=2pass / bitrate=9865 / ratetol=1.0 / qcomp=0.60 / qpmin=10 / qpmax=51 / qpstep=4 / cplxblur=20.0 / qblur=0.5 / ip_ratio=1.40 / pb_ratio=1.30 / aq=1:1.00
Language                                 : English
Default                                  : Yes
Forced                                   : No

Audio
ID                                       : 2
Format                                   : AC-3
Format/Info                              : Audio Coding 3
Mode extension                           : CM (complete main)
Format settings, Endianness              : Big
Codec ID                                 : A_AC3
Duration                                 : 1h 33mn
Bit rate mode                            : Constant
Bit rate                                 : 192 Kbps
Channel(s)                               : 1 channel
Channel positions                        : Front: C
Sampling rate                            : 48.0 KHz
Compression mode                         : Lossy
Stream size                              : 128 MiB (2%)
Language                                 : English
Default                                  : Yes
Forced                                   : No

Text
ID                                       : 3
Format                                   : UTF-8
Codec ID                                 : S_TEXT/UTF8
Codec ID/Info                            : UTF-8 Plain Text
Language                                 : English
Default                                  : Yes
Forced                                   : No

Menu
00:00:00.000                             : en:00:00:00.000
00:02:15.844                             : en:00:02:15.844
00:04:49.956                             : en:00:04:49.956
00:08:24.921                             : en:00:08:24.921
00:10:51.901                             : en:00:10:51.901
00:12:14.901                             : en:00:12:14.901
00:15:01.901                             : en:00:15:01.901
00:21:38.464                             : en:00:21:38.464
00:24:04.902                             : en:00:24:04.902
00:26:09.943                             : en:00:26:09.943
00:28:27.998                             : en:00:28:27.998
00:34:04.334                             : en:00:34:04.334
00:36:52.710                             : en:00:36:52.710
00:38:49.744                             : en:00:38:49.744
00:40:38.519                             : en:00:40:38.519
00:44:29.959                             : en:00:44:29.959
00:46:21.988                             : en:00:46:21.988
00:47:38.898                             : en:00:47:38.898
00:51:15.864                             : en:00:51:15.864
00:54:27.306                             : en:00:54:27.306
00:56:30.846                             : en:00:56:30.846
00:59:38.617                             : en:00:59:38.617
01:03:39.149                             : en:01:03:39.149
01:05:48.903                             : en:01:05:48.903
01:11:46.093                             : en:01:11:46.093
01:13:41.667                             : en:01:13:41.667
01:16:27.374                             : en:01:16:27.374
01:19:26.553                             : en:01:19:26.553
01:22:06.046                             : en:01:22:06.046
01:25:08.645                             : en:01:25:08.645
01:27:18.692                             : en:01:27:18.692
01:29:19.729                             : en:01:29:19.729





                                                                                                                                                                                                       

                                                                                                                       
                                                                                                                                                                                                                                                        A.Christmas.Story.1983.1080p.BluRay.x264-FSiHD.torrent (66.15 KB, 下载次数: 0)

回复

使用道具 举报

小黑屋|百度云资源论坛 |网站地图

本网站所有资源来自网络,如无意中侵犯了您的权益,请发邮件至 [email protected],立即清除相关链接

GMT+8, 2020-12-5 07:07 , Processed in 0.107425 second(s), 23 queries .

Powered by Discuz! X3.2

© 2001-2013 Comsenz Inc.

快速回复 返回顶部 返回列表