百度云资源论坛

 找回密码
 立即注册
搜索

[恐怖片] 美国怪谈/美国猎人/美国梦魇 An.American.Haunting.2005.1080p.BluRay.x264.DTS-FGT 5 ...

[复制链接]
电影首发 发表于 2015-11-12 09:13:00 | 显示全部楼层 |阅读模式

译  名 美国怪谈/美国猎人/美国梦魇/萦绕美国/美国怪谈:鬼杀人
片  名 An American Haunting
年  代 2005
国  家 英国/加拿大/罗马尼亚/美国
类  别 恐怖/悬疑/惊悚
语  言 英语
上映日期 2005-11-05
片  长 83 分钟/91 分钟(unrated version)
导  演 科特尼·所罗门 Courtney Solomon
主  演 唐纳德·萨瑟兰 Donald Sutherland
      茜茜·斯派塞克 Sissy Spacek
      詹姆斯·达西 James D'Arcy
      蕾切儿·哈伍德 Rachel Hurd-Wood


简  介


  1818年,美国田纳西州红河镇,镇上颇有名望的贝尔家一家之长约翰(Donald Sutherland 饰)因土地纷争遭到女巫凯瑟•拜茨(Gaye Brown 饰)的诅咒。不久后,各种恐怖离奇的事件相继发生,且逐渐升级。最终,贝尔家最小的女儿贝特西(Rachel Hurd-Wood 饰)被鬼魂附体, 从她的口中发出非人的诅咒:“贝尔家族必须有一人要死”。
  贝尔一家想尽一切办法驱逐恶灵,但无济于事。他们必须面临即将成真的恐怖诅咒,以及家族中被隐藏起来的丑恶的秘密……
  影片根据真实事件改编,是美国历史上唯一一起官方承认的冤鬼索命致人死亡的案件,曾有20多本著作专述此事。


Video
ID                                       : 1
Format                                   : AVC
Format/Info                              : Advanced Video Codec
Format profile                           : [email protected]
Format settings, CABAC                   : Yes
Format settings, ReFrames                : 5 frames
Codec ID                                 : V_MPEG4/ISO/AVC
Duration                                 : 1h 30mn
Bit rate                                 : 6 643 Kbps
Width                                    : 1 920 pixels
Height                                   : 792 pixels
Display aspect ratio                     : 2.40:1
Frame rate mode                          : Constant
Frame rate                               : 23.976 fps
Color space                              : YUV
Chroma subsampling                       : 4:2:0
Bit depth                                : 8 bits
Scan type                                : Progressive
Bits/(Pixel*Frame)                       : 0.182
Stream size                              : 4.19 GiB (80%)
Writing library                          : x264 core 129 r2245 bc13772
Encoding settings                        : cabac=1 / ref=5 / deblock=1:-1:-1 / analyse=0x3:0x133 / me=umh / subme=7 / psy=1 / psy_rd=1.00:0.15 / mixed_ref=1 / me_range=16 / chroma_me=1 / trellis=1 / 8x8dct=1 / cqm=0 / deadzone=21,11 / fast_pskip=0 / chroma_qp_offset=-3 / threads=12 / lookahead_threads=2 / sliced_threads=0 / nr=0 / decimate=1 / interlaced=0 / bluray_compat=0 / constrained_intra=0 / bframes=3 / b_pyramid=2 / b_adapt=1 / b_bias=0 / direct=1 / weightb=1 / open_gop=0 / weightp=2 / keyint=240 / keyint_min=23 / scenecut=40 / intra_refresh=0 / rc_lookahead=40 / rc=crf / mbtree=1 / crf=20.0 / qcomp=0.60 / qpmin=10 / qpmax=51 / qpstep=4 / ip_ratio=1.40 / aq=1:1.00
Language                                 : English
Default                                  : Yes
Forced                                   : No

Audio
ID                                       : 2
Format                                   : DTS
Format/Info                              : Digital Theater Systems
Mode                                     : 16
Format settings, Endianness              : Big
Codec ID                                 : A_DTS
Duration                                 : 1h 30mn
Bit rate mode                            : Constant
Bit rate                                 : 1 509 Kbps
Channel(s)                               : 6 channels
Channel positions                        : Front: L C R, Side: L R, LFE
Sampling rate                            : 48.0 KHz
Bit depth                                : 24 bits
Compression mode                         : Lossy
Stream size                              : 975 MiB (18%)
Language                                 : English
Default                                  : Yes
Forced                                   : No





                                                                                                                                                                                                       

                                                                                                                       
                                                                                                                                                                                                                                                        An.American.Haunting.2005.1080p.BluRay.x264.DTS-FGT.torrent (53.14 KB, 下载次数: 0)

回复

使用道具 举报

小黑屋|百度云资源论坛 |网站地图

本网站所有资源来自网络,如无意中侵犯了您的权益,请发邮件至 [email protected],立即清除相关链接

GMT+8, 2020-9-30 11:41 , Processed in 0.106017 second(s), 23 queries .

Powered by Discuz! X3.2

© 2001-2013 Comsenz Inc.

快速回复 返回顶部 返回列表