百度云资源论坛

 找回密码
 立即注册
搜索

[剧情片] 洛奇6:永远的拳王 Rocky.Balboa.2006.1080p.BluRay.x264-FSiHD 7.93GB

[复制链接]
电影首发 发表于 2015-11-12 09:07:00 | 显示全部楼层 |阅读模式

译  名 洛奇6:永远的拳王/洛奇6/洛奇:拳王再临/洛基:勇者无惧
片  名 Rocky Balboa
年  代 2006
国  家 美国
类  别 剧情/运动
语  言 英语/西班牙语
上映日期 2006-12-20
片  长 102 分钟
导  演 西尔维斯特·史泰龙 Sylvester Stallone
主  演 西尔维斯特·史泰龙 Sylvester Stallone
      波特·杨 Burt Young
      Antonio Tarver
      Geraldine Hughes
      米洛·文堤米利亚 Milo Ventimiglia
      托尼·伯顿 Tony Burton
      A.J. Benza
      James Francis Kelly III
      塔莉娅·夏尔 Talia Shire
      Lou DiBella
      迈克·泰森 Mike Tyson
      亨利·G.桑德斯 Henry G. Sanders
      Pedro Lovell
      Ana Gerena
      Angela Boyd


简  介


  转眼30年过去,往日的荣光渐渐不再。曾经的传奇拳王洛奇(西尔维斯特·史泰龙 Sylvester Stallone 饰)生活平淡乏味,心爱的妻子亚德里安(Talia Shire 饰)因癌症去世,自己与儿子的关系又分外紧张,他终日坐在所开的小餐馆里追忆往昔,谁也不会想到这位拳王退休后的人生竟如此落寞。
  是时,新一代的拳王横空出世,年轻的梅森·迪克逊(Antonio Tarver 饰)统治者重量级冠军的头衔。在体育频道工作的波利(Burt Young 饰)突发奇想,策划了一场新老两代拳王的世纪对决。梅森渴望在比赛中向拳迷们证明自己的实力,洛奇则希望在此感受万众欢呼呐喊的狂热气氛,他们怀着各自的心愿重返拳台……


Rocky.Balboa.2006.洛奇6.双语字幕.HR-HDTV.AC3.1024X576.x264-人人影视制作.mkv (1.52 GB)


Video
ID                                       : 1
Format                                   : AVC
Format/Info                              : Advanced Video Codec
Format profile                           : [email protected]
Format settings, CABAC                   : Yes
Format settings, ReFrames                : 4 frames
Codec ID                                 : V_MPEG4/ISO/AVC
Duration                                 : 1h 41mn
Bit rate                                 : 9 639 Kbps
Width                                    : 1 920 pixels
Height                                   : 1 040 pixels
Display aspect ratio                     : 1.85:1
Frame rate mode                          : Constant
Frame rate                               : 23.976 fps
Color space                              : YUV
Chroma subsampling                       : 4:2:0
Bit depth                                : 8 bits
Scan type                                : Progressive
Bits/(Pixel*Frame)                       : 0.201
Stream size                              : 6.70 GiB (84%)
Writing library                          : x264 core 67 r1128M 682b54d
Encoding settings                        : cabac=1 / ref=4 / deblock=1:0:0 / analyse=0x3:0x133 / me=umh / subme=7 / psy_rd=1.0:0.0 / mixed_ref=1 / me_range=16 / chroma_me=1 / trellis=1 / 8x8dct=1 / cqm=0 / deadzone=21,11 / chroma_qp_offset=-2 / threads=3 / nr=0 / decimate=1 / mbaff=0 / bframes=3 / b_pyramid=1 / b_adapt=1 / b_bias=0 / direct=1 / wpredb=1 / keyint=250 / keyint_min=25 / scenecut=40 / rc=2pass / bitrate=9639 / ratetol=1.0 / qcomp=0.60 / qpmin=10 / qpmax=51 / qpstep=4 / cplxblur=20.0 / qblur=0.5 / ip_ratio=1.40 / pb_ratio=1.30 / aq=1:1.00
Language                                 : English
Default                                  : Yes
Forced                                   : No

Audio
ID                                       : 2
Format                                   : DTS
Format/Info                              : Digital Theater Systems
Mode                                     : 16
Format settings, Endianness              : Big
Codec ID                                 : A_DTS
Duration                                 : 1h 41mn
Bit rate mode                            : Constant
Bit rate                                 : 1 509 Kbps
Channel(s)                               : 6 channels
Channel positions                        : Front: L C R, Side: L R, LFE
Sampling rate                            : 48.0 KHz
Bit depth                                : 24 bits
Compression mode                         : Lossy
Stream size                              : 1.07 GiB (14%)
Language                                 : English
Default                                  : Yes
Forced                                   : No

Text #1
ID                                       : 3
Format                                   : UTF-8
Codec ID                                 : S_TEXT/UTF8
Codec ID/Info                            : UTF-8 Plain Text
Language                                 : English
Default                                  : No
Forced                                   : No

Text #2
ID                                       : 4
Format                                   : UTF-8
Codec ID                                 : S_TEXT/UTF8
Codec ID/Info                            : UTF-8 Plain Text
Language                                 : Dutch
Default                                  : No
Forced                                   : No

Text #3
ID                                       : 5
Format                                   : UTF-8
Codec ID                                 : S_TEXT/UTF8
Codec ID/Info                            : UTF-8 Plain Text
Language                                 : French
Default                                  : No
Forced                                   : No

Text #4
ID                                       : 6
Format                                   : UTF-8
Codec ID                                 : S_TEXT/UTF8
Codec ID/Info                            : UTF-8 Plain Text
Language                                 : German
Default                                  : No
Forced                                   : No

Menu
00:00:00.000                             : en:00:00:00.000
00:11:38.114                             : en:00:11:38.114
00:16:42.877                             : en:00:16:42.877
00:25:20.978                             : en:00:25:20.978
00:30:46.678                             : en:00:30:46.678
00:40:48.655                             : en:00:40:48.655
00:43:18.429                             : en:00:43:18.429
00:46:09.642                             : en:00:46:09.642
00:51:22.579                             : en:00:51:22.579
01:00:41.972                             : en:01:00:41.972
01:05:03.650                             : en:01:05:03.650
01:06:26.566                             : en:01:06:26.566
01:13:23.816                             : en:01:13:23.816
01:21:23.796                             : en:01:21:23.796
01:29:48.133                             : en:01:29:48.133
01:33:10.710                             : en:01:33:10.710






                                                                                                                                                                                                        

                                                                                                                        
                                                                                                                                                                                                                                                         Rocky.Balboa.2006.1080p.BluRay.x264-FSiHD.torrent (79.82 KB, 下载次数: 0)

回复

使用道具 举报

小黑屋|百度云资源论坛 |网站地图

本网站所有资源来自网络,如无意中侵犯了您的权益,请发邮件至 [email protected],立即清除相关链接

GMT+8, 2020-10-1 19:38 , Processed in 0.109087 second(s), 23 queries .

Powered by Discuz! X3.2

© 2001-2013 Comsenz Inc.

快速回复 返回顶部 返回列表