百度云资源论坛

 找回密码
 立即注册
搜索

[剧情片] 洛奇5:怒火龙拳 Rocky.V.1990.1080p.BluRay.x264-CiNEFiLE 7.95GB

[复制链接]
电影首发 发表于 2015-11-12 09:07:00 | 显示全部楼层 |阅读模式

译  名 洛奇5/洛奇第五集- 怒火龙拳/洛基V/洛奇第五集:龙吟虎啸
片  名 Rocky V
年  代 1990
国  家 美国
类  别 剧情/运动
语  言 英语
上映日期 1990-11-16
片  长 104 分钟
导  演 约翰·G·艾维尔森 John G. Avildsen
主  演 西尔维斯特·史泰龙 Sylvester Stallone
      塔莉娅·夏尔 Talia Shire
      波特·杨 Burt Young
      塞奇·史泰龙 Sage Stallone
      Delia Sheppard


简  介


  洛基电影的第五集。自从上一集洛基(西尔维斯特•史泰龙 Sylvester Stallone 饰)击败了苏联的拳击机械人后,他决意归隐,从此过些安安乐乐的日子。阴险商人杜克(东尼•布顿 Tony Burton 饰)是拳击经理人,利用拳击手赚黑心钱,他高薪引诱洛基投到他门下,洛基不为所动,断然拒绝了他的邀请。
  退隐后的洛基还是没有离开拳击,他的好友拳击教练米克死后留下了一座拳击训练馆,洛基继承了米克的事业,每天到拳击馆里训练新人。年轻拳手绰号“机枪”的涛米极具天分,洛基倾其所有传授米涛拳术,米涛在洛基的帮助很快就跻身了优秀拳手的行列。成名后的米涛被名声和金钱所蒙蔽,投到了杜克的帐下,成了杜克阴谋的一枚棋子。
  怒不可遏的洛基决定用自己的手段拯救米涛!


Rocky.v.1990.洛奇5.双语字幕.HR-HDTV.AC3.1024X576.x264-人人影视制作.mkv (1.55 GB)

Video
ID                                       : 1
Format                                   : AVC
Format/Info                              : Advanced Video Codec
Format profile                           : [email protected]
Format settings, CABAC                   : Yes
Format settings, ReFrames                : 4 frames
Codec ID                                 : V_MPEG4/ISO/AVC
Duration                                 : 1h 44mn
Bit rate                                 : 9 411 Kbps
Width                                    : 1 920 pixels
Height                                   : 1 040 pixels
Display aspect ratio                     : 1.85:1
Frame rate mode                          : Constant
Frame rate                               : 23.976 fps
Color space                              : YUV
Chroma subsampling                       : 4:2:0
Bit depth                                : 8 bits
Scan type                                : Progressive
Bits/(Pixel*Frame)                       : 0.197
Stream size                              : 6.69 GiB (84%)
Writing library                          : x264 core 75 r1259 dd026f2
Encoding settings                        : cabac=1 / ref=4 / deblock=1:0:0 / analyse=0x3:0x2 / me=umh / subme=7 / psy=1 / psy_rd=1.0:0.0 / mixed_ref=1 / me_range=16 / chroma_me=1 / trellis=1 / 8x8dct=1 / cqm=0 / deadzone=21,11 / chroma_qp_offset=-2 / threads=6 / nr=0 / decimate=1 / mbaff=0 / bframes=3 / b_pyramid=0 / b_adapt=1 / b_bias=0 / direct=1 / wpredb=1 / keyint=250 / keyint_min=25 / scenecut=40 / rc_lookahead=40 / rc=2pass / mbtree=1 / bitrate=9411 / ratetol=1.0 / qcomp=0.60 / qpmin=10 / qpmax=51 / qpstep=4 / cplxblur=20.0 / qblur=0.5 / ip_ratio=1.40 / aq=1:1.00
Language                                 : English
Default                                  : Yes
Forced                                   : No

Audio
ID                                       : 2
Format                                   : DTS
Format/Info                              : Digital Theater Systems
Mode                                     : 16
Format settings, Endianness              : Big
Codec ID                                 : A_DTS
Duration                                 : 1h 44mn
Bit rate mode                            : Constant
Bit rate                                 : 1 509 Kbps
Channel(s)                               : 6 channels
Channel positions                        : Front: L C R, Side: L R, LFE
Sampling rate                            : 48.0 KHz
Bit depth                                : 24 bits
Compression mode                         : Lossy
Stream size                              : 1.10 GiB (14%)
Language                                 : English
Default                                  : Yes
Forced                                   : No

Text
ID                                       : 3
Format                                   : UTF-8
Codec ID                                 : S_TEXT/UTF8
Codec ID/Info                            : UTF-8 Plain Text
Language                                 : English
Default                                  : No
Forced                                   : No





                                                                                                                                                                                                        

                                                                                                                        
                                                                                                                                                                                                                                                         Rocky.V.1990.1080p.BluRay.x264-CiNEFiLE.torrent (80.04 KB, 下载次数: 0)

回复

使用道具 举报

小黑屋|百度云资源论坛 |网站地图

本网站所有资源来自网络,如无意中侵犯了您的权益,请发邮件至 [email protected],立即清除相关链接

GMT+8, 2020-10-2 00:12 , Processed in 0.101759 second(s), 23 queries .

Powered by Discuz! X3.2

© 2001-2013 Comsenz Inc.

快速回复 返回顶部 返回列表