百度云资源论坛

 找回密码
 立即注册
搜索

[剧情片] 洛奇4:龙拳虎威 Rocky.IV.1985.1080p.BluRay.x264-CiNEFiLE 7.95GB

[复制链接]
电影首发 发表于 2015-11-12 09:07:00 | 显示全部楼层 |阅读模式

译  名 洛奇4/洛奇第四集龙拳虎威/洛基4:天下无敌
片  名 Rocky IV
年  代 1985
国  家 美国
类  别 动作/剧情/运动
语  言 英语/俄语
上映日期 1985-11-27
片  长 91 分钟
导  演 西尔维斯特·史泰龙 Sylvester Stallone
主  演 西尔维斯特·史泰龙 Sylvester Stallone
      塔莉娅·夏尔 Talia Shire
      波特·杨 Burt Young
      卡尔·韦瑟斯 Carl Weathers
      布里吉特·尼尔森 Brigitte Nielsen
      托尼·伯顿 Tony Burton
      迈克尔·帕塔奇 Michael Pataki
      杜夫·龙格尔 Dolph Lundgren
      Stu Nahan
      R.J. Adams
      Al Bandiero
      Dominic Barto
      Danial Brown
      James Brown
      Rose Mary Campos


简  介


  1985年,那时正是美苏两极争霸越演越烈的年代,史泰龙自导自演的洛基系列也出到了第四集,这一系列影片旨在振奋人心、宣扬美国精神。这一集讲述的是洛基(西尔维斯特•史泰龙 Sylvester Stallone 饰)的好友前美国拳王到苏联出战他们研制的拳击机械人,不敌对手最终身遭不测。为了帮好友复仇和维护国家荣誉,洛基决定再次出马。
  出战前,洛基进行了一系列精心的准备工作,他深入到大自然,利用自然的艰苦条件刻苦训练。当一切准备妥当,洛基和苏联拳王――拳击机械人的决斗展开了!


Rocky.iv.1985.洛奇4.双语字幕.HR-HDTV.AC3.1024X576.x264-人人影视制作.mkv (1.37 GB)


Video
ID                                       : 1
Format                                   : AVC
Format/Info                              : Advanced Video Codec
Format profile                           : [email protected]
Format settings, CABAC                   : Yes
Format settings, ReFrames                : 4 frames
Codec ID                                 : V_MPEG4/ISO/AVC
Duration                                 : 1h 31mn
Bit rate                                 : 10.9 Mbps
Width                                    : 1 920 pixels
Height                                   : 1 040 pixels
Display aspect ratio                     : 1.85:1
Frame rate mode                          : Constant
Frame rate                               : 23.976 fps
Color space                              : YUV
Chroma subsampling                       : 4:2:0
Bit depth                                : 8 bits
Scan type                                : Progressive
Bits/(Pixel*Frame)                       : 0.228
Stream size                              : 6.82 GiB (86%)
Writing library                          : x264 core 75 r1259 dd026f2
Encoding settings                        : cabac=1 / ref=4 / deblock=1:0:0 / analyse=0x3:0x2 / me=umh / subme=7 / psy=1 / psy_rd=1.0:0.0 / mixed_ref=1 / me_range=16 / chroma_me=1 / trellis=1 / 8x8dct=1 / cqm=0 / deadzone=21,11 / chroma_qp_offset=-2 / threads=6 / nr=0 / decimate=1 / mbaff=0 / bframes=3 / b_pyramid=0 / b_adapt=1 / b_bias=0 / direct=1 / wpredb=1 / keyint=250 / keyint_min=25 / scenecut=40 / rc_lookahead=40 / rc=2pass / mbtree=1 / bitrate=10920 / ratetol=1.0 / qcomp=0.60 / qpmin=10 / qpmax=51 / qpstep=4 / cplxblur=20.0 / qblur=0.5 / ip_ratio=1.40 / aq=1:1.00
Language                                 : English
Default                                  : Yes
Forced                                   : No

Audio
ID                                       : 2
Format                                   : DTS
Format/Info                              : Digital Theater Systems
Mode                                     : 16
Format settings, Endianness              : Big
Codec ID                                 : A_DTS
Duration                                 : 1h 31mn
Bit rate mode                            : Constant
Bit rate                                 : 1 509 Kbps
Channel(s)                               : 6 channels
Channel positions                        : Front: L C R, Side: L R, LFE
Sampling rate                            : 48.0 KHz
Bit depth                                : 24 bits
Compression mode                         : Lossy
Stream size                              : 988 MiB (12%)
Language                                 : English
Default                                  : Yes
Forced                                   : No

Text
ID                                       : 3
Format                                   : UTF-8
Codec ID                                 : S_TEXT/UTF8
Codec ID/Info                            : UTF-8 Plain Text
Language                                 : English
Default                                  : No
Forced                                   : No





                                                                                                                                                                                                        

                                                                                                                        
                                                                                                                                                                                                                                                         Rocky.IV.1985.1080p.BluRay.x264-CiNEFiLE.torrent (80.05 KB, 下载次数: 0)

回复

使用道具 举报

小黑屋|百度云资源论坛 |网站地图

本网站所有资源来自网络,如无意中侵犯了您的权益,请发邮件至 [email protected],立即清除相关链接

GMT+8, 2020-9-30 10:05 , Processed in 0.120752 second(s), 23 queries .

Powered by Discuz! X3.2

© 2001-2013 Comsenz Inc.

快速回复 返回顶部 返回列表