百度云资源论坛

 找回密码
 立即注册
搜索

[动作片] 洛奇3:虎威 Rocky.III.1982.1080p.BluRay.x264-CiNEFiLE 7.95GB

[复制链接]
电影首发 发表于 2015-11-12 09:07:00 | 显示全部楼层 |阅读模式

译  名 洛奇3/洛奇第三集虎威/洛基3
片  名 Rocky III
年  代 1982
国  家 美国
类  别 动作/剧情/运动
语  言 英语
上映日期 1982-05-28
片  长 99 分钟
导  演 西尔维斯特·史泰龙 Sylvester Stallone
主  演 西尔维斯特·史泰龙 Sylvester Stallone
      塔莉娅·夏尔 Talia Shire
      波特·杨 Burt Young
      卡尔·韦瑟斯 Carl Weathers
      劳伦斯·特劳德 Mr. T


简  介


  在第二次击败宿敌——黑人拳王阿波罗·克里德(Carl Weathers 饰)后,当初贫民窟出身的穷小子洛奇(西尔维斯特·史泰龙 Sylvester Stallone 饰)逐渐走上事业的顶峰。他先后十次卫冕,创造了重量级拳王的不败神话,受到来此各界的疯狂追捧。原本打算引退的洛奇受到了黑人拳击手克鲁伯(Mr. T 饰)的挑战,他不顾经纪人米基(Burgess Meredith 饰)的阻拦,决然走入擂台,却遭遇了生涯中久违的惨败。在此之后,米基因心脏病去世,洛奇也陷入消沉。就在这关键时刻,阿波罗出现在洛奇面前,他要帮助这个昔日的劲敌重新振作起来,寻找属于自己的荣光……
  本片荣获1983年青年艺术家奖最佳动作片奖。


获奖情况


  第55届奥斯卡金像奖 (1983)
  最佳原创歌曲(提名) Jim Peterik / Frankie Sullivan


Rocky.iii.1982.洛奇3.双语字幕.HR-HDTV.AC3.1024X576.x264-人人影视制作.mkv (1.49 GB)

Video
ID                                       : 1
Format                                   : AVC
Format/Info                              : Advanced Video Codec
Format profile                           : [email protected]
Format settings, CABAC                   : Yes
Format settings, ReFrames                : 4 frames
Codec ID                                 : V_MPEG4/ISO/AVC
Duration                                 : 1h 39mn
Bit rate                                 : 9 909 Kbps
Width                                    : 1 920 pixels
Height                                   : 1 040 pixels
Display aspect ratio                     : 1.85:1
Frame rate mode                          : Constant
Frame rate                               : 23.976 fps
Color space                              : YUV
Chroma subsampling                       : 4:2:0
Bit depth                                : 8 bits
Scan type                                : Progressive
Bits/(Pixel*Frame)                       : 0.207
Stream size                              : 6.74 GiB (85%)
Writing library                          : x264 core 75 r1259 dd026f2
Encoding settings                        : cabac=1 / ref=4 / deblock=1:0:0 / analyse=0x3:0x2 / me=umh / subme=7 / psy=1 / psy_rd=1.0:0.0 / mixed_ref=1 / me_range=16 / chroma_me=1 / trellis=1 / 8x8dct=1 / cqm=0 / deadzone=21,11 / chroma_qp_offset=-2 / threads=6 / nr=0 / decimate=1 / mbaff=0 / bframes=3 / b_pyramid=0 / b_adapt=1 / b_bias=0 / direct=1 / wpredb=1 / keyint=250 / keyint_min=25 / scenecut=40 / rc_lookahead=40 / rc=2pass / mbtree=1 / bitrate=9909 / ratetol=1.0 / qcomp=0.60 / qpmin=10 / qpmax=51 / qpstep=4 / cplxblur=20.0 / qblur=0.5 / ip_ratio=1.40 / aq=1:1.00
Language                                 : English
Default                                  : Yes
Forced                                   : No

Audio
ID                                       : 2
Format                                   : DTS
Format/Info                              : Digital Theater Systems
Mode                                     : 16
Format settings, Endianness              : Big
Codec ID                                 : A_DTS
Duration                                 : 1h 39mn
Bit rate mode                            : Constant
Bit rate                                 : 1 509 Kbps
Channel(s)                               : 6 channels
Channel positions                        : Front: L C R, Side: L R, LFE
Sampling rate                            : 48.0 KHz
Bit depth                                : 24 bits
Compression mode                         : Lossy
Stream size                              : 1.05 GiB (13%)
Language                                 : English
Default                                  : Yes
Forced                                   : No

Text
ID                                       : 3
Format                                   : UTF-8
Codec ID                                 : S_TEXT/UTF8
Codec ID/Info                            : UTF-8 Plain Text
Language                                 : English
Default                                  : No
Forced                                   : No





                                                                                                                                                                                                        

                                                                                                                        
                                                                                                                                                                                                                                                         Rocky.III.1982.1080p.BluRay.x264-CiNEFiLE.torrent (80.07 KB, 下载次数: 0)

回复

使用道具 举报

小黑屋|百度云资源论坛 |网站地图

本网站所有资源来自网络,如无意中侵犯了您的权益,请发邮件至 [email protected],立即清除相关链接

GMT+8, 2020-9-28 07:19 , Processed in 0.117075 second(s), 23 queries .

Powered by Discuz! X3.2

© 2001-2013 Comsenz Inc.

快速回复 返回顶部 返回列表