百度云资源论坛

 找回密码
 立即注册
搜索

[剧情片] 洛奇2 Rocky.II.1979.1080p.BluRay.x264-CiNEFiLE 8.75GB

[复制链接]
电影首发 发表于 2015-11-12 09:07:00 | 显示全部楼层 |阅读模式

译  名 洛奇2/洛奇续集/洛基第二集
片  名 Rocky II
年  代 1979
国  家 美国
类  别 剧情/运动
语  言 英语/意大利语
上映日期 1979-06-15
片  长 119 分钟
导  演 西尔维斯特·史泰龙 Sylvester Stallone
主  演 西尔维斯特·史泰龙 Sylvester Stallone
      塔莉娅·夏尔 Talia Shire
      波特·杨 Burt Young
      卡尔·韦瑟斯 Carl Weathers
      布吉斯·梅迪斯 Burgess Meredith


简  介


  洛基•巴尔博厄(西尔维斯特•史泰龙 Sylvester Stallone 饰)战胜了世界冠军拳王阿波罗,却很快花光了比赛赢得的奖金。为了养家糊口,他尝试了很多的工作,均未成功。他再三考虑,决定做回本行,重新开始他的拳击生涯。
  阿波罗对于上次的失败也非常介怀,他多次给洛奇制造麻烦,逼迫他重出江湖。虽然太太反对,但洛奇仍然紧锣密鼓,开始做好比赛的准备,他的决心终于得到亲人的支持。在亲友的协助下,他苦练拳术,走上赛场,和阿波罗展开惊险搏斗。


Rocky.ii.1979.洛奇2.双语字幕.HR-HDTV.AC3.1024X576.x264-人人影视制作.mkv (1.78 GB)

Video
ID                                       : 1
Format                                   : AVC
Format/Info                              : Advanced Video Codec
Format profile                           : [email protected]
Format settings, CABAC                   : Yes
Format settings, ReFrames                : 4 frames
Codec ID                                 : V_MPEG4/ISO/AVC
Duration                                 : 1h 59mn
Bit rate                                 : 8 997 Kbps
Width                                    : 1 920 pixels
Height                                   : 1 040 pixels
Display aspect ratio                     : 1.85:1
Frame rate mode                          : Constant
Frame rate                               : 23.976 fps
Color space                              : YUV
Chroma subsampling                       : 4:2:0
Bit depth                                : 8 bits
Scan type                                : Progressive
Bits/(Pixel*Frame)                       : 0.188
Stream size                              : 7.32 GiB (84%)
Writing library                          : x264 core 75 r1259 dd026f2
Encoding settings                        : cabac=1 / ref=4 / deblock=1:0:0 / analyse=0x3:0x2 / me=umh / subme=7 / psy=1 / psy_rd=1.0:0.0 / mixed_ref=1 / me_range=16 / chroma_me=1 / trellis=1 / 8x8dct=1 / cqm=0 / deadzone=21,11 / chroma_qp_offset=-2 / threads=6 / nr=0 / decimate=1 / mbaff=0 / bframes=3 / b_pyramid=0 / b_adapt=1 / b_bias=0 / direct=1 / wpredb=1 / keyint=250 / keyint_min=25 / scenecut=40 / rc_lookahead=40 / rc=2pass / mbtree=1 / bitrate=8997 / ratetol=1.0 / qcomp=0.60 / qpmin=10 / qpmax=51 / qpstep=4 / cplxblur=20.0 / qblur=0.5 / ip_ratio=1.40 / aq=1:1.00
Language                                 : English
Default                                  : Yes
Forced                                   : No

Audio
ID                                       : 2
Format                                   : DTS
Format/Info                              : Digital Theater Systems
Mode                                     : 16
Format settings, Endianness              : Big
Codec ID                                 : A_DTS
Duration                                 : 1h 59mn
Bit rate mode                            : Constant
Bit rate                                 : 1 509 Kbps
Channel(s)                               : 6 channels
Channel positions                        : Front: L C R, Side: L R, LFE
Sampling rate                            : 48.0 KHz
Bit depth                                : 24 bits
Compression mode                         : Lossy
Stream size                              : 1.26 GiB (14%)
Language                                 : English
Default                                  : Yes
Forced                                   : No

Text
ID                                       : 3
Format                                   : UTF-8
Codec ID                                 : S_TEXT/UTF8
Codec ID/Info                            : UTF-8 Plain Text
Language                                 : English
Default                                  : No
Forced                                   : No





                                                                                                                                                                                                        

                                                                                                                        
                                                                                                                                                                                                                                                         Rocky.II.1979.1080p.BluRay.x264-CiNEFiLE.torrent (88.06 KB, 下载次数: 0)

回复

使用道具 举报

小黑屋|百度云资源论坛 |网站地图

本网站所有资源来自网络,如无意中侵犯了您的权益,请发邮件至 [email protected],立即清除相关链接

GMT+8, 2020-9-27 20:41 , Processed in 0.111499 second(s), 23 queries .

Powered by Discuz! X3.2

© 2001-2013 Comsenz Inc.

快速回复 返回顶部 返回列表