百度云资源论坛

 找回密码
 立即注册
搜索

[剧情片] 舞出我人生2/舞出真我2 Step.Up.2.The.Streets.2008.1080p.Bluray.x264-1920 7.95GB . ...

[复制链接]
电影首发 发表于 2015-11-12 09:07:00 | 显示全部楼层 |阅读模式

译  名 舞出我人生2:街舞/舞出真我2/舞法舞天2/舞力全开
片  名 Step Up 2: The Streets
年  代 2008
国  家 美国
类  别 剧情/音乐/爱情
语  言 英语/俄语
上映日期 2008-02-14(美国)
片  长 98 分钟
导  演 朱浩伟 Jon Chu
主  演 布莱恩娜·伊维根 Briana Evigan
      罗伯特·霍夫曼 Robert Hoffman
      亚当·G·瑟瓦尼 Adam G. Sevani
      凯茜·温图拉 Cassie Ventura
      Danielle Polanco
      Christopher Scott


简  介


  失去双亲的街舞者安迪(布莱恩娜·伊维根 Briana Evigan 饰)自小就开始了对街舞的执着练习,她所在的巴尔的摩知名街舞团体410最近完成了“锐舞争霸赛”的视频参赛宣言,而她的监护人因这次出格的视频内容威胁要把她送离此地,幸好在朋友的斡旋下,安迪选择进入马里兰艺术学校学习,保住了眼下的生活。学校里的明星学生查斯(罗伯特·霍夫曼 Robert Hoffman 饰)对安迪颇有兴趣,要求加入锐舞争霸赛却被后者无视。安迪因学业繁重不能兼顾410的训练,终于导致被开除。失意的安迪接受了查斯的邀请,和他物色来的众多校内隐藏的舞蹈高手组成新队伍,向锐舞争霸赛发起冲击……


获奖情况


  第17届MTV电影奖 (2008)
  MTV电影奖 最佳吻戏 布莱恩娜·伊维根 / 罗伯特·霍夫曼




Video
ID                                       : 1
Format                                   : AVC
Format/Info                              : Advanced Video Codec
Format profile                           : [email protected]
Format settings, CABAC                   : Yes
Format settings, ReFrames                : 5 frames
Codec ID                                 : V_MPEG4/ISO/AVC
Duration                                 : 1h 37mn
Bit rate                                 : 11.0 Mbps
Width                                    : 1 920 pixels
Height                                   : 1 040 pixels
Display aspect ratio                     : 1.85:1
Frame rate mode                          : Constant
Frame rate                               : 23.976 fps
Color space                              : YUV
Chroma subsampling                       : 4:2:0
Bit depth                                : 8 bits
Scan type                                : Progressive
Bits/(Pixel*Frame)                       : 0.229
Stream size                              : 7.35 GiB (93%)
Writing library                          : x264 core 60 r890 a55f1c3
Encoding settings                        : cabac=1 / ref=5 / deblock=1:0:0 / analyse=0x3:0x133 / me=umh / subme=6 / brdo=1 / mixed_ref=1 / me_range=16 / chroma_me=1 / trellis=1 / 8x8dct=1 / cqm=0 / deadzone=21,11 / chroma_qp_offset=0 / threads=6 / nr=0 / decimate=1 / mbaff=0 / bframes=3 / b_pyramid=1 / b_adapt=1 / b_bias=0 / direct=1 / wpredb=1 / bime=1 / keyint=250 / keyint_min=25 / scenecut=40(pre) / rc=2pass / bitrate=10985 / ratetol=1.0 / rceq=\'blurCplx^(1-qComp)\' / qcomp=1.00 / qpmin=10 / qpmax=51 / qpstep=4 / cplxblur=20.0 / qblur=0.5 / ip_ratio=1.40 / pb_ratio=1.30 / aq=2:1.00
Language                                 : English
Default                                  : Yes
Forced                                   : No

Audio
ID                                       : 2
Format                                   : AC-3
Format/Info                              : Audio Coding 3
Mode extension                           : CM (complete main)
Format settings, Endianness              : Big
Codec ID                                 : A_AC3
Duration                                 : 1h 37mn
Bit rate mode                            : Constant
Bit rate                                 : 640 Kbps
Channel(s)                               : 6 channels
Channel positions                        : Front: L C R, Side: L R, LFE
Sampling rate                            : 48.0 KHz
Compression mode                         : Lossy
Stream size                              : 448 MiB (6%)
Default                                  : Yes
Forced                                   : No





                                                                                                                                                                                                       

                                                                                                                       
                                                                                                                                                                                                                                                        Step.Up.2.The.Streets.2008.1080p.Bluray.x264-1920 .torrent (80 KB, 下载次数: 0)

回复

使用道具 举报

小黑屋|百度云资源论坛 |网站地图

本网站所有资源来自网络,如无意中侵犯了您的权益,请发邮件至 [email protected],立即清除相关链接

GMT+8, 2020-11-28 00:56 , Processed in 0.114391 second(s), 23 queries .

Powered by Discuz! X3.2

© 2001-2013 Comsenz Inc.

快速回复 返回顶部 返回列表