百度云资源论坛

 找回密码
 立即注册
搜索

[剧情片] 舞出我人生3/舞出真我3 Step.Up.3.2010.1080p.BluRay.x264-BLOW 7.94GB

[复制链接]
电影首发 发表于 2015-11-12 09:07:00 | 显示全部楼层 |阅读模式

译  名 舞出我人生3/舞出真我3/舞法舞天3/舞力全開3D(台)
片  名 Step Up 3D
年  代 2010
国  家 美国
类  别 剧情/音乐/爱情
语  言 英语
上映日期 2010-08-06
片  长 107 分钟
导  演 朱浩伟 Jon M. Chu
主  演 瑞奇·马兰博瑞 Rick Malambri
      亚当·G·瑟瓦尼 Adam G. Sevani
      沙妮·文森 Sharni Vinson
      艾莉森·斯通勒 Alyson Stoner
      Keith Stallworth
      史蒂芬·布斯 Stephen Boss
      乔· 斯拉夫特 Joe Slaughter
      Daniel 'Cloud' Campos


简  介


  和前几集不同,这次影片采用了3D立体电影形式,可以让观众有身临其境的感觉。
  史上第一次国际性街舞对战,将在纽约举行!来自世界各地藏龙卧虎的顶级高手,都将在此一决高下!和卢克(瑞奇·马兰博瑞 Rick Malambri 饰)一起组成团队的,个个都是不怕虎的初生牛犊。刚刚考入纽约大学的可爱小子莫斯(亚当·G·瑟瓦尼 Adam G. Sevani 饰)、永不言败的自信美眉娜塔莉(沙妮·文森 Sharni Vinson 饰)、一脸孩子气但舞技惊人的卡米尔(艾莉森·斯卡里奥缇 Allison Scagliotti 饰)、高大威猛的肌肉大块头杰森。他们,每个人都做出了破釜沉舟的决定。尽管对于他们中的某些,这可能意味着耽误学业,意味着和家人反目,但为了追逐梦想,他们谁也不会后退……




Video
ID                                       : 1
Format                                   : AVC
Format/Info                              : Advanced Video Codec
Format profile                           : [email protected]
Format settings, CABAC                   : Yes
Format settings, ReFrames                : 4 frames
Codec ID                                 : V_MPEG4/ISO/AVC
Duration                                 : 1h 47mn
Bit rate                                 : 9 098 Kbps
Width                                    : 1 920 pixels
Height                                   : 1 080 pixels
Display aspect ratio                     : 16:9
Frame rate mode                          : Constant
Frame rate                               : 23.976 fps
Color space                              : YUV
Chroma subsampling                       : 4:2:0
Bit depth                                : 8 bits
Scan type                                : Progressive
Bits/(Pixel*Frame)                       : 0.183
Stream size                              : 6.65 GiB (84%)
Writing library                          : x264 core 107 r1772 c9dad9e
Encoding settings                        : cabac=1 / ref=4 / deblock=1:0:0 / analyse=0x3:0x133 / me=umh / subme=7 / psy=1 / psy_rd=1.00:0.00 / mixed_ref=1 / me_range=16 / chroma_me=1 / trellis=1 / 8x8dct=1 / cqm=0 / deadzone=21,11 / fast_pskip=0 / chroma_qp_offset=-2 / threads=12 / sliced_threads=0 / nr=0 / decimate=1 / interlaced=0 / constrained_intra=0 / bframes=3 / b_pyramid=2 / b_adapt=1 / b_bias=0 / direct=1 / weightb=1 / open_gop=0 / weightp=2 / keyint=250 / keyint_min=23 / scenecut=40 / intra_refresh=0 / rc_lookahead=40 / rc=2pass / mbtree=1 / bitrate=9098 / ratetol=1.0 / qcomp=0.60 / qpmin=10 / qpmax=51 / qpstep=4 / cplxblur=20.0 / qblur=0.5 / ip_ratio=1.40 / aq=1:1.00
Language                                 : English
Default                                  : No
Forced                                   : No

Audio
ID                                       : 2
Format                                   : DTS
Format/Info                              : Digital Theater Systems
Format profile                           : ES
Mode                                     : 16
Format settings, Endianness              : Big
Codec ID                                 : A_DTS
Duration                                 : 1h 47mn
Bit rate mode                            : Constant
Bit rate                                 : 1 509 Kbps
Channel(s)                               : 6 channels
Channel positions                        : Front: L C R, Side: L R, LFE
Sampling rate                            : 48.0 KHz
Bit depth                                : 24 bits
Compression mode                         : Lossy
Stream size                              : 1.13 GiB (14%)
Default                                  : Yes
Forced                                   : No

Text
ID                                       : 3
Format                                   : UTF-8
Codec ID                                 : S_TEXT/UTF8
Codec ID/Info                            : UTF-8 Plain Text
Language                                 : English
Default                                  : Yes
Forced                                   : No





                                                                                                                                                                                                       

                                                                                                                       
                                                                                                                                                                                                                                                        Step.Up.3.2010.1080p.BluRay.x264-BLOW.torrent (79.94 KB, 下载次数: 0)

回复

使用道具 举报

小黑屋|百度云资源论坛 |网站地图

本网站所有资源来自网络,如无意中侵犯了您的权益,请发邮件至 [email protected],立即清除相关链接

GMT+8, 2020-9-28 14:44 , Processed in 0.101847 second(s), 23 queries .

Powered by Discuz! X3.2

© 2001-2013 Comsenz Inc.

快速回复 返回顶部 返回列表