百度云资源论坛

 找回密码
 立即注册
搜索

[剧情片] 舞出我人生4/舞出真我4 Step.Up.Revolution.2012.1080p.Bluray.x264-CBGB 7.65GB ... ...

[复制链接]
电影首发 发表于 2015-11-12 09:07:00 | 显示全部楼层 |阅读模式

译  名 舞出我人生4/舞出真我4(港)/舞力全開4(台)
片  名 Step Up: Revolution
年  代 2012
国  家 美国
类  别 剧情/爱情/音乐
语  言 英语
上映日期 2012-07-27(美国)
片  长 99分钟
导  演 斯科特·斯皮尔 Scott Speer
主  演 瑞安·古兹曼 Ryan Guzman
      凯瑟琳·麦考米克 Kathryn McCormick
      杰西卡·瓜迪克斯 Jessica Guadix
      查德·史密斯 Chadd Smith
      史蒂芬·布斯 Stephen Boss
      莫嘉娜·斯奈普 Morgane Slemp
      梅根·布恩 Megan Boone
      克利欧佩特拉·科尔曼 Cleopatra Coleman


简  介


  影片讲述一个富商的女儿艾米莉(凯瑟琳·麦考米克 饰)前往迈阿密想要成为一名专业的舞者,她结识了一个顶尖舞蹈团的领队西恩(瑞安·古兹曼 饰),并很快坠入爱河。为了舞团的生存,他们必须拿下一个很重要的赞助项目。但是这时艾米莉的父亲横插一脚,企图改变和拆散舞团,艾米莉、西恩和舞团的其他成员必须团结起来,捍卫并且实现他们的梦想。


Video
ID                                       : 1
Format                                   : AVC
Format/Info                              : Advanced Video Codec
Format profile                           : [email protected]
Format settings, CABAC                   : Yes
Format settings, ReFrames                : 5 frames
Muxing mode                              : Header stripping
Codec ID                                 : V_MPEG4/ISO/AVC
Duration                                 : 1h 38mn
Bit rate                                 : 9 597 Kbps
Width                                    : 1 920 pixels
Height                                   : 800 pixels
Display aspect ratio                     : 2.40:1
Frame rate mode                          : Constant
Frame rate                               : 23.976 fps
Color space                              : YUV
Chroma subsampling                       : 4:2:0
Bit depth                                : 8 bits
Scan type                                : Progressive
Bits/(Pixel*Frame)                       : 0.261
Stream size                              : 6.46 GiB (84%)
Writing library                          : x264 core 122 r2184 5c85e0a
Encoding settings                        : cabac=1 / ref=5 / deblock=1:-1:-1 / analyse=0x3:0x113 / me=umh / subme=8 / psy=1 / psy_rd=1.00:0.15 / mixed_ref=1 / me_range=16 / chroma_me=1 / trellis=1 / 8x8dct=1 / cqm=0 / deadzone=21,11 / fast_pskip=1 / chroma_qp_offset=-3 / threads=12 / sliced_threads=0 / nr=0 / decimate=1 / interlaced=0 / bluray_compat=0 / constrained_intra=0 / bframes=3 / b_pyramid=2 / b_adapt=1 / b_bias=0 / direct=3 / weightb=1 / open_gop=0 / weightp=2 / keyint=250 / keyint_min=23 / scenecut=40 / intra_refresh=0 / rc_lookahead=40 / rc=2pass / mbtree=1 / bitrate=9597 / ratetol=1.0 / qcomp=0.60 / qpmin=0 / qpmax=69 / qpstep=4 / cplxblur=20.0 / qblur=0.5 / ip_ratio=1.40 / aq=1:1.00
Language                                 : English
Default                                  : Yes
Forced                                   : No

Audio
ID                                       : 2
Format                                   : DTS
Format/Info                              : Digital Theater Systems
Mode                                     : 16
Format settings, Endianness              : Big
Muxing mode                              : Header stripping
Codec ID                                 : A_DTS
Duration                                 : 1h 38mn
Bit rate mode                            : Constant
Bit rate                                 : 1 509 Kbps
Channel(s)                               : 6 channels
Channel positions                        : Front: L C R, Side: L R, LFE
Sampling rate                            : 48.0 KHz
Bit depth                                : 24 bits
Compression mode                         : Lossy
Stream size                              : 1.04 GiB (14%)
Language                                 : English
Default                                  : Yes
Forced                                   : No

Menu
00:00:00.000                             : en:00:00:00.000
00:05:36.836                             : en:00:05:36.836
00:07:25.236                             : en:00:07:25.236
00:11:46.915                             : en:00:11:46.915
00:14:00.465                             : en:00:14:00.465
00:16:54.513                             : en:00:16:54.513
00:20:22.680                             : en:00:20:22.680
00:23:16.228                             : en:00:23:16.228
00:27:37.990                             : en:00:27:37.990
00:32:30.323                             : en:00:32:30.323
00:36:58.383                             : en:00:36:58.383
00:39:49.387                             : en:00:39:49.387
00:42:43.478                             : en:00:42:43.478
00:45:50.081                             : en:00:45:50.081
00:49:37.141                             : en:00:49:37.141
00:56:35.642                             : en:00:56:35.642
00:58:43.979                             : en:00:58:43.979
01:02:47.097                             : en:01:02:47.097
01:07:05.939                             : en:01:07:05.939
01:11:52.391                             : en:01:11:52.391
01:15:35.072                             : en:01:15:35.072
01:17:22.847                             : en:01:17:22.847
01:26:01.865                             : en:01:26:01.865
01:31:32.195                             : en:01:31:32.195






                                                                                                                                                                                                       

                                                                                                                       
                                                                                                                                                                                                                                                        Step.Up.Revolution.2012.1080p.Bluray.x264-CBGB.torrent (77.04 KB, 下载次数: 0)

回复

使用道具 举报

小黑屋|百度云资源论坛 |网站地图

本网站所有资源来自网络,如无意中侵犯了您的权益,请发邮件至 [email protected],立即清除相关链接

GMT+8, 2020-9-27 15:15 , Processed in 0.108428 second(s), 23 queries .

Powered by Discuz! X3.2

© 2001-2013 Comsenz Inc.

快速回复 返回顶部 返回列表