百度云资源论坛

 找回密码
 立即注册
搜索

[剧情片] 舞出我人生/舞出真我 Step.Up.2006.1080p.BluRay.x264-HDEX 7.95GB

[复制链接]
电影首发 发表于 2015-11-12 09:07:00 | 显示全部楼层 |阅读模式

译  名 舞出我人生/舞出真我/舞法舞天
片  名 Step Up
年  代 2006
国  家 美国
类  别 剧情/爱情/犯罪/音乐
语  言 英语
上映日期 2006-08-11(美国)
片  长 104分钟
导  演 安妮·弗莱彻 Anne Fletcher
主  演 查宁·塔图姆 Channing Tatum
      珍娜·迪万 Jenna Dewan
      瑞切尔·格里菲斯 Rachel Griffiths
      Damaine Radcliff
      Josh Henderson


简  介


  个性张扬的街头嘻哈与高贵典雅的芭蕾可以在舞台上完美的契合,就像泰勒(钱宁 •塔图姆饰)与诺拉(珍娜•迪温)的结合一样。这是一个奇迹,还是一种宿命。
  泰勒是来自巴尔的摩的底层社会的反叛青年,诺拉是就读与贵族艺校的优秀的芭蕾舞学生。诺拉要参加的高级舞蹈比赛,需要一个舞技超群的舞伴,而泰勒刚好因为被罚在艺术学校社区服务而闯入诺拉的视野。泰勒随意自如的街头舞蹈吸引了诺拉,舞台上的一次次合作,让这两个同样执着于艺术的孩子擦出律动的火花。
  两条原本平行的直线,交汇于舞蹈的光辉。




Video
ID                                       : 1
Format                                   : AVC
Format/Info                              : Advanced Video Codec
Format profile                           : [email protected]
Format settings, CABAC                   : Yes
Format settings, ReFrames                : 5 frames
Codec ID                                 : V_MPEG4/ISO/AVC
Duration                                 : 1h 43mn
Bit rate                                 : 10.6 Mbps
Width                                    : 1 920 pixels
Height                                   : 816 pixels
Display aspect ratio                     : 2.35:1
Frame rate mode                          : Constant
Frame rate                               : 24.000 fps
Color space                              : YUV
Chroma subsampling                       : 4:2:0
Bit depth                                : 8 bits
Scan type                                : Progressive
Bits/(Pixel*Frame)                       : 0.282
Stream size                              : 7.47 GiB (94%)
Writing library                          : x264 core 61 r956M 7b71d58
Encoding settings                        : cabac=1 / ref=5 / deblock=1:0:0 / analyse=0x3:0x113 / me=hex / subme=6 / psy_rd=1.0:1.0 / brdo=1 / mixed_ref=1 / me_range=16 / chroma_me=1 / trellis=1 / 8x8dct=1 / cqm=0 / deadzone=21,11 / chroma_qp_offset=-4 / threads=3 / nr=0 / decimate=1 / mbaff=0 / bframes=3 / b_pyramid=1 / b_adapt=1 / b_bias=0 / direct=3 / wpredb=1 / bime=1 / keyint=240 / keyint_min=24 / scenecut=40(pre) / rc=2pass / bitrate=10594 / ratetol=1.0 / qcomp=1.00 / qpmin=10 / qpmax=51 / qpstep=4 / cplxblur=20.0 / qblur=0.5 / ip_ratio=1.40 / pb_ratio=1.30 / aq=2:2.00
Language                                 : English
Default                                  : Yes
Forced                                   : No

Audio
ID                                       : 2
Format                                   : AC-3
Format/Info                              : Audio Coding 3
Mode extension                           : CM (complete main)
Format settings, Endianness              : Big
Codec ID                                 : A_AC3
Duration                                 : 1h 43mn
Bit rate mode                            : Constant
Bit rate                                 : 448 Kbps
Channel(s)                               : 6 channels
Channel positions                        : Front: L C R, Side: L R, LFE
Sampling rate                            : 48.0 KHz
Compression mode                         : Lossy
Stream size                              : 330 MiB (4%)
Language                                 : English
Default                                  : Yes
Forced                                   : No






                                                                                                                                                                                                       

                                                                                                                       
                                                                                                                                                                                                                                                        Step.Up.2006.1080p.BluRay.x264-HDEX.torrent (79.99 KB, 下载次数: 0)

回复

使用道具 举报

小黑屋|百度云资源论坛 |网站地图

本网站所有资源来自网络,如无意中侵犯了您的权益,请发邮件至 [email protected],立即清除相关链接

GMT+8, 2020-10-1 22:57 , Processed in 0.104560 second(s), 23 queries .

Powered by Discuz! X3.2

© 2001-2013 Comsenz Inc.

快速回复 返回顶部 返回列表