百度云资源论坛

 找回密码
 立即注册
搜索

冰雪女王2/冰雪皇后2 The.Snow.Queen.2.2014.720p.BluRay.x264-REKT 3.32GB

[复制链接]
电影首发 发表于 2015-11-11 09:05:00 | 显示全部楼层 |阅读模式

译  名 冰雪女王2/冰雪皇后2
片  名 Снежная королева 2: Перезаморозка
年  代 2014
国  家 俄罗斯
类  别 动画/家庭
语  言 英语/俄语
上映日期 2014-12-11(英国)/2015-01-01(俄罗斯)
导  演 Alexey Tsitsilin
主  演 伊莎贝拉·弗尔曼 Isabelle Fuhrman
      贝拉·索恩 Bella Thorne
      肖恩·宾 Sean Bean
      沙尔托·科普雷 Sharlto Copley
      Sara Cravens


简  介


  自负的巨魔奥姆(Иван Охлобыстин配音)梦想着英雄的桂冠,而这个证明自己的机会并没经过太漫长的等待:世界再次面临坠为永恒的冬天,北风绑架了巨魔公主。国王答应给解救出她的人自己的王国和他侄女тому的手。这一次奥姆打算独立地解决所有事。Сколотив装备上从奶奶的平底锅和收集/装配装置成了最令人不安的巨魔,奥姆出发直奔冰雪女王的城堡。还好,那个不理智而荒唐的巨魔还剩下忠实的朋友:勇敢的格尔达(Gerda/Герда)、害羞的凯(Kai/Кай)、真正的海盗Альфида和活泼的黄鼠狼Лута,他们总是乐于帮助有困难的人。




Video
ID                                       : 1
Format                                   : AVC
Format/Info                              : Advanced Video Codec
Format profile                           : [email protected]
Format settings, CABAC                   : Yes
Format settings, ReFrames                : 5 frames
Codec ID                                 : V_MPEG4/ISO/AVC
Duration                                 : 1h 18mn
Bit rate                                 : 4 445 Kbps
Width                                    : 1 280 pixels
Height                                   : 536 pixels
Display aspect ratio                     : 2.40:1
Frame rate mode                          : Constant
Frame rate                               : 23.976 fps
Color space                              : YUV
Chroma subsampling                       : 4:2:0
Bit depth                                : 8 bits
Scan type                                : Progressive
Bits/(Pixel*Frame)                       : 0.270
Stream size                              : 2.38 GiB (73%)
Writing library                          : x264 core 148 r2638 7599210
Encoding settings                        : cabac=1 / ref=5 / deblock=1:0:0 / analyse=0x3:0x133 / me=umh / subme=7 / psy=1 / psy_rd=1.00:0.00 / mixed_ref=1 / me_range=16 / chroma_me=1 / trellis=1 / 8x8dct=1 / cqm=0 / deadzone=21,11 / fast_pskip=0 / chroma_qp_offset=-2 / threads=12 / lookahead_threads=2 / sliced_threads=0 / nr=0 / decimate=1 / interlaced=0 / bluray_compat=0 / constrained_intra=0 / bframes=3 / b_pyramid=2 / b_adapt=2 / b_bias=0 / direct=3 / weightb=1 / open_gop=0 / weightp=2 / keyint=250 / keyint_min=23 / scenecut=40 / intra_refresh=0 / rc_lookahead=50 / rc=2pass / mbtree=1 / bitrate=4445 / ratetol=1.0 / qcomp=0.60 / qpmin=0 / qpmax=69 / qpstep=4 / cplxblur=20.0 / qblur=0.5 / ip_ratio=1.40 / aq=1:1.00
Language                                 : English
Default                                  : Yes
Forced                                   : No
DURATION                                 : 01:18:45.805000000
NUMBER_OF_FRAMES                         : 113306
NUMBER_OF_BYTES                          : 2624815357
_STATISTICS_WRITING_APP                  : mkvmerge v7.7.0 (\'Six Voices\') 32bit built on Feb 28 2015 23:23:00
_STATISTICS_WRITING_DATE_UTC             : 2015-11-03 12:46:46
_STATISTICS_TAGS                         : BPS DURATION NUMBER_OF_FRAMES NUMBER_OF_BYTES

Audio
ID                                       : 2
Format                                   : DTS
Format/Info                              : Digital Theater Systems
Mode                                     : 16
Format settings, Endianness              : Big
Codec ID                                 : A_DTS
Duration                                 : 1h 18mn
Bit rate mode                            : Constant
Bit rate                                 : 1 509 Kbps
Channel(s)                               : 6 channels
Channel positions                        : Front: L C R, Side: L R, LFE
Sampling rate                            : 48.0 KHz
Bit depth                                : 24 bits
Compression mode                         : Lossy
Stream size                              : 850 MiB (25%)
Language                                 : English
Default                                  : Yes
Forced                                   : No

Menu
00:00:00.000                             : en:00:00:00.000
00:11:00.994                             : en:00:11:00.994
00:27:45.998                             : en:00:27:45.998
00:43:19.388                             : en:00:43:19.388
01:08:32.483                             : en:01:08:32.483
01:11:46.594                             : en:01:11:46.594



                                                                                                                                                                                                       

                                                                                                                       
                                                                                                                                                                                                                                                        The.Snow.Queen.2.2014.720p.BluRay.x264-REKT.torrent (133.55 KB, 下载次数: 0)

回复

使用道具 举报

小黑屋|百度云资源论坛

本网站所有资源来自网络,如无意中侵犯了您的权益,请发邮件至 [email protected],立即清除相关链接

GMT+8, 2022-12-6 20:05 , Processed in 0.083100 second(s), 26 queries .

Powered by Discuz! X3.2

© 2001-2013 Comsenz Inc.

快速回复 返回顶部 返回列表