百度云资源论坛

 找回密码
 立即注册
搜索

[喜剧片] 我的吸血鬼老板/吸血混蛋/吸血老板 Bloodsucking.Bastards.2015.720p.BluRay.x264.DTS ...

[复制链接]
电影首发 发表于 2015-11-11 09:05:00 | 显示全部楼层 |阅读模式

译  名 我的吸血鬼老板/吸血混蛋/吸血老板
片  名 Bloodsucking Bastards
年  代 2015
国  家 美国
类  别 喜剧/恐怖
语  言 英语
上映日期 2015-09-04(美国)
片  长 86分钟
导  演 Brian James O'Connell
主  演 弗兰·克朗茨 Fran Kranz
      佩德罗·帕斯卡 Pedro Pascal
      Yvette Yates


简  介


  由《权力的游戏》 中 “红毒蛇”奥柏伦马泰尔的演员Pedro Pascal主演的喜剧恐怖电影
  An action-packed horror comedy, Bloodsucking Bastards stars Fran Kranz as Evan, a dutiful and overworked employee stuck at a soul-killi ng corporation with his beautiful co-worker and girlfriend Amanda (Emma Fitzpatrick) and his slacker best friend Tim (Joey Kern).
  Evans world begins to crumble when Amanda dumps him and his boss Ted (Joel Murray) hands his coveted promotion to his nemesis Max (Pedro Pascal). When his office mates start going through disturbing changes, Evan must find a way to stop the evil brewing admist the cubicles, and rescue his workplace pals before his life and career go from dead-end... to just dead.



  • Video
  • ID                                       : 1
  • Format                                   : AVC
  • Format/Info                              : Advanced Video Codec
  • Format profile                           : [email protected]
  • Format settings, CABAC                   : Yes
  • Format settings, ReFrames                : 11 frames
  • Codec ID                                 : V_MPEG4/ISO/AVC
  • Duration                                 : 1h 24mn
  • Bit rate                                 : 7 106 Kbps
  • Width                                    : 1 280 pixels
  • Height                                   : 570 pixels
  • Display aspect ratio                     : 2.25:1
  • Frame rate mode                          : Constant
  • Frame rate                               : 23.976 fps
  • Color space                              : YUV
  • Chroma subsampling                       : 4:2:0
  • Bit depth                                : 8 bits
  • Scan type                                : Progressive
  • Bits/(Pixel*Frame)                       : 0.406
  • Stream size                              : 4.17 GiB (81%)
  • Writing library                          : x264 core 142 r2431+42 c69a006 tMod [[email protected] X86_64]
  • Encoding settings                        : cabac=1 / ref=11 / deblock=1:-3:-3 / analyse=0x3:0x133 / me=umh / subme=11 / psy=1 / fade_compensate=0.00 / psy_rd=1.05:1.00 / mixed_ref=1 / me_range=32 / chroma_me=1 / trellis=2 / 8x8dct=1 / cqm=0 / deadzone=21,11 / fast_pskip=0 / chroma_qp_offset=-4 / threads=12 / lookahead_threads=2 / sliced_threads=0 / nr=0 / decimate=0 / interlaced=0 / bluray_compat=0 / constrained_intra=0 / fgo=0 / bframes=8 / b_pyramid=2 / b_adapt=2 / b_bias=0 / direct=3 / weightb=1 / open_gop=0 / weightp=2 / keyint=240 / keyint_min=23 / scenecut=40 / intra_refresh=0 / rc_lookahead=60 / rc=crf / mbtree=0 / crf=17.0000 / qcomp=0.60 / qpmin=0:0:0 / qpmax=69:69:69 / qpstep=4 / vbv_maxrate=40000 / vbv_bufsize=30000 / crf_max=0.0 / nal_hrd=none / filler=0 / ip_ratio=1.40 / pb_ratio=1.30 / aq=1:1.00 / aq-sensitivity=10.00 / aq-factor=1.00:1.00:1.00 / aq2=0 / aq3=0
  • Language                                 : English
  • Default                                  : Yes
  • Forced                                   : No


  • Audio
  • ID                                       : 2
  • Format                                   : DTS
  • Format/Info                              : Digital Theater Systems
  • Mode                                     : 16
  • Format settings, Endianness              : Big
  • Codec ID                                 : A_DTS
  • Duration                                 : 1h 24mn
  • Bit rate mode                            : Constant
  • Bit rate                                 : 1 509 Kbps
  • Channel(s)                               : 6 channels
  • Channel positions                        : Front: L C R, Side: L R, LFE
  • Sampling rate                            : 48.0 KHz
  • Bit depth                                : 24 bits
  • Compression mode                         : Lossy
  • Stream size                              : 907 MiB (17%)
  • Language                                 : English
  • Default                                  : Yes
  • Forced                                   : No


  • Text
  • ID                                       : 3
  • Format                                   : PGS
  • Muxing mode                              : zlib
  • Codec ID                                 : S_HDMV/PGS
  • Codec ID/Info                            : Picture based subtitle format used on BDs/HD-DVDs
  • Language                                 : English
  • Default                                  : Yes
  • Forced                                   : No


  • Menu
  • 00:00:00.000                             : en:Chapter 01
  • 00:05:32.290                             : en:Chapter 02
  • 00:13:43.656                             : en:Chapter 03
  • 00:25:41.957                             : en:Chapter 04
  • 00:37:48.557                             : en:Chapter 05
  • 00:50:17.305                             : en:Chapter 06
  • 01:00:30.585                             : en:Chapter 07
  • 01:12:11.243                             : en:Chapter 08
  • 01:21:43.189                             : en:Chapter 09








                                                                                                                                                                                                       

                                                                                                                       
                                                                                                                                                                                                                                                        Bloodsucking.Bastards.2015.720p.BluRay.x264.DTS-EPiC.torrent (52.23 KB, 下载次数: 0)

回复

使用道具 举报

小黑屋|百度云资源论坛

本网站所有资源来自网络,如无意中侵犯了您的权益,请发邮件至 [email protected],立即清除相关链接

GMT+8, 2022-9-30 12:24 , Processed in 0.097455 second(s), 26 queries .

Powered by Discuz! X3.2

© 2001-2013 Comsenz Inc.

快速回复 返回顶部 返回列表