百度云资源论坛

 找回密码
 立即注册
搜索

[冒险片] 艾米莉亚/艾蜜莉亚:梦想起飞/空中女豪 Amelia.2009.1080p.Bluray.x264-CBGB 7.95GB .. ...

[复制链接]
电影首发 发表于 2015-11-11 08:58:00 | 显示全部楼层 |阅读模式

译  名 艾米莉亚/艾蜜莉亚:梦想起飞(台)/空中女豪/艾美丽雅:伴你起航
片  名 Amelia
年  代 2009
国  家 美国/加拿大
类  别 冒险/传记/剧情/爱情
语  言 英语
上映日期 2009-10-23
片  长 111 分钟
导  演 米拉·奈尔 Mira Nair
主  演 希拉里·斯万克 Hilary Swank
      伊万·麦克格雷格 Ewan McGregor
      理查·基尔 Richard Gere
      克里斯托弗·埃克莱斯顿 Christopher Eccleston
      乔·安德森 Joe Anderson


简  介


  “Amelia”讲述的是美国女飞行员Amelia Earhart的传奇人生,标准的人物传记片,美国式立志奋斗故事,再加上女主角是希拉里.斯旺克,明显有瞄准奥斯卡之嫌。看新闻里的介绍:伊万演的是Amelia的真爱,一个叫Eugene Luther Vidal的西点空军飞行员,好像在美国历史上还挺有名的;片中另外一个男主是理查.基尔,饰演Amelia的丈夫。




Video
ID                                       : 1
Format                                   : AVC
Format/Info                              : Advanced Video Codec
Format profile                           : [email protected]
Format settings, CABAC                   : Yes
Format settings, ReFrames                : 4 frames
Codec ID                                 : V_MPEG4/ISO/AVC
Duration                                 : 1h 51mn
Bit rate                                 : 8 708 Kbps
Width                                    : 1 920 pixels
Height                                   : 808 pixels
Display aspect ratio                     : 2.40:1
Frame rate mode                          : Constant
Frame rate                               : 23.976 fps
Color space                              : YUV
Chroma subsampling                       : 4:2:0
Bit depth                                : 8 bits
Scan type                                : Progressive
Bits/(Pixel*Frame)                       : 0.234
Stream size                              : 6.62 GiB (83%)
Writing library                          : x264 core 83 r1400 20fa784
Encoding settings                        : cabac=1 / ref=5 / deblock=1:0:0 / analyse=0x3:0x113 / me=umh / subme=7 / psy=1 / psy_rd=1.0:0.2 / mixed_ref=1 / me_range=16 / chroma_me=1 / trellis=1 / 8x8dct=1 / cqm=0 / deadzone=21,11 / fast_pskip=1 / chroma_qp_offset=-3 / threads=6 / sliced_threads=0 / nr=0 / decimate=1 / mbaff=0 / constrained_intra=0 / bframes=3 / b_pyramid=1 / b_adapt=1 / b_bias=0 / direct=3 / wpredb=1 / wpredp=2 / keyint=250 / keyint_min=25 / scenecut=40 / intra_refresh=0 / rc_lookahead=40 / rc=2pass / mbtree=1 / bitrate=8708 / ratetol=1.0 / qcomp=0.60 / qpmin=10 / qpmax=51 / qpstep=4 / cplxblur=20.0 / qblur=0.5 / ip_ratio=1.40 / aq=1:1.00
Language                                 : English
Default                                  : Yes
Forced                                   : No

Audio
ID                                       : 2
Format                                   : DTS
Format/Info                              : Digital Theater Systems
Mode                                     : 16
Format settings, Endianness              : Big
Codec ID                                 : A_DTS
Duration                                 : 1h 51mn
Bit rate mode                            : Constant
Bit rate                                 : 1 509 Kbps
Channel(s)                               : 6 channels
Channel positions                        : Front: L C R, Side: L R, LFE
Sampling rate                            : 48.0 KHz
Bit depth                                : 24 bits
Compression mode                         : Lossy
Stream size                              : 1.17 GiB (15%)
Language                                 : English
Default                                  : Yes
Forced                                   : No

Menu
00:00:00.000                             : en:00:00:00.000
00:03:43.181                             : en:00:03:43.181
00:07:06.134                             : en:00:07:06.134
00:08:33.304                             : en:00:08:33.304
00:12:42.136                             : en:00:12:42.136
00:18:26.271                             : en:00:18:26.271
00:22:43.570                             : en:00:22:43.570
00:27:01.369                             : en:00:27:01.369
00:30:15.939                             : en:00:30:15.939
00:38:16.419                             : en:00:38:16.419
00:43:57.926                             : en:00:43:57.926
00:50:31.111                             : en:00:50:31.111
00:56:52.700                             : en:00:56:52.700
01:03:52.703                             : en:01:03:52.703
01:08:11.962                             : en:01:08:11.962
01:12:48.781                             : en:01:12:48.781
01:18:02.636                             : en:01:18:02.636
01:20:51.555                             : en:01:20:51.555
01:24:06.374                             : en:01:24:06.374
01:28:42.942                             : en:01:28:42.942
01:33:01.659                             : en:01:33:01.659
01:35:28.222                             : en:01:35:28.222
01:41:20.491                             : en:01:41:20.491
01:46:19.372                             : en:01:46:19.372
01:51:20.423                             : en:01:51:20.423






                                                                                                                                                                                                       

                                                                                                                       
                                                                                                                                                                                                                                                        Amelia.2009.1080p.Bluray.x264-CBGB.torrent (79.99 KB, 下载次数: 0)

回复

使用道具 举报

小黑屋|百度云资源论坛

本网站所有资源来自网络,如无意中侵犯了您的权益,请发邮件至 [email protected],立即清除相关链接

GMT+8, 2022-9-29 08:09 , Processed in 0.099324 second(s), 26 queries .

Powered by Discuz! X3.2

© 2001-2013 Comsenz Inc.

快速回复 返回顶部 返回列表