百度云资源论坛

 找回密码
 立即注册
搜索

[科幻片] 死亡密码/圆周率/数字漩涡/盛开的数字 Pi.1998.1080p.BluRay.x264-CiNEFiLE 6.56GB .. ...

[复制链接]
电影首发 发表于 2015-11-11 08:58:00 | 显示全部楼层 |阅读模式

译  名 死亡密码/圆周率/数字漩涡/盛开的数字
片  名 π
年  代 1998
国  家 美国
类  别 剧情/科幻/惊悚
语  言 英语/希伯来语
上映日期 1998-07-10
片  长 84 分钟
导  演 达伦·阿伦诺夫斯基 Darren Aronofsky
主  演 肖恩·格莱特 Sean Gullette
      马克·马戈利斯 Mark Margolis
      本·申克曼 Ben Shenkman
      Samia Shoaib
      Ajay Naidu


简  介


  犹太天才数学家马克西·米利安·科恩(希恩·格莱特 Sean Gullette饰)痴迷沉醉于数字的世界,他认为一切自然界的事物都可以用数字解释。他潜心研究,试图透过数字推演出种种生命迹象背后的奥秘和规律。可越是逼近答案,他越是无法忍受致命的头痛。他发现了过去十年来股票市场的混乱波动,其实是由背后的一套数学模式在操纵。与此同时,他的研究引来了华尔街股票市场的炒家们和犹太神秘教派的注意。在介乎真实与虚拟的世界中,马克西正在走向疯狂。
  1996年2月,阿伦诺夫斯基开始筹备这部成本只有六万美元的长片处女作。两年后,《死亡密码》以其新颖的创意和崭新的拍摄手法,一鸣惊人。先是斩获圣丹斯电影节的导演奖,翌年又摘得独立精神奖的最佳编剧处女作奖。2000年,他再次自编自导了《梦之安魂曲》,也赢得了不错的反响。2005年,他还入围“最需要关注的好莱坞100人”。




Video
ID                                       : 1
Format                                   : AVC
Format/Info                              : Advanced Video Codec
Format profile                           : [email protected]
Format settings, CABAC                   : Yes
Format settings, ReFrames                : 4 frames
Codec ID                                 : V_MPEG4/ISO/AVC
Duration                                 : 1h 24mn
Bit rate                                 : 9 633 Kbps
Width                                    : 1 792 pixels
Height                                   : 1 080 pixels
Display aspect ratio                     : 5:3
Frame rate mode                          : Constant
Frame rate                               : 24.000 fps
Color space                              : YUV
Chroma subsampling                       : 4:2:0
Bit depth                                : 8 bits
Scan type                                : Progressive
Bits/(Pixel*Frame)                       : 0.207
Stream size                              : 5.54 GiB (84%)
Writing library                          : x264 core 115 r1995 c1e60b9
Encoding settings                        : cabac=1 / ref=4 / deblock=1:0:0 / analyse=0x3:0x113 / me=umh / subme=7 / psy=1 / psy_rd=1.00:0.00 / mixed_ref=1 / me_range=16 / chroma_me=1 / trellis=1 / 8x8dct=1 / cqm=0 / deadzone=21,11 / fast_pskip=0 / chroma_qp_offset=-2 / threads=12 / sliced_threads=0 / nr=0 / decimate=1 / interlaced=0 / bluray_compat=0 / constrained_intra=0 / bframes=3 / b_pyramid=2 / b_adapt=1 / b_bias=0 / direct=1 / weightb=1 / open_gop=0 / weightp=2 / keyint=250 / keyint_min=24 / scenecut=40 / intra_refresh=0 / rc_lookahead=40 / rc=2pass / mbtree=1 / bitrate=9633 / ratetol=1.0 / qcomp=0.60 / qpmin=0 / qpmax=69 / qpstep=4 / cplxblur=20.0 / qblur=0.5 / ip_ratio=1.40 / aq=1:1.00
Language                                 : English
Default                                  : Yes
Forced                                   : No

Audio
ID                                       : 2
Format                                   : DTS
Format/Info                              : Digital Theater Systems
Mode                                     : 16
Format settings, Endianness              : Big
Codec ID                                 : A_DTS
Duration                                 : 1h 24mn
Bit rate mode                            : Constant
Bit rate                                 : 1 509 Kbps
Channel(s)                               : 2 channels
Channel positions                        : Front: L R
Sampling rate                            : 48.0 KHz
Bit depth                                : 24 bits
Compression mode                         : Lossy
Stream size                              : 909 MiB (14%)
Language                                 : English
Default                                  : Yes
Forced                                   : No





                                                                                                                                                                                                       

                                                                                                                       
                                                                                                                                                                                                                                                        Pi.1998.1080p.BluRay.x264-CiNEFiLE.torrent (66.12 KB, 下载次数: 0)

回复

使用道具 举报

小黑屋|百度云资源论坛

本网站所有资源来自网络,如无意中侵犯了您的权益,请发邮件至 [email protected],立即清除相关链接

GMT+8, 2022-9-30 12:01 , Processed in 0.092191 second(s), 26 queries .

Powered by Discuz! X3.2

© 2001-2013 Comsenz Inc.

快速回复 返回顶部 返回列表