百度云资源论坛

 找回密码
 立即注册
搜索

尖叫公园 Scream.Park.2012.UNCUT.1080p.BluRay.x264-AMBASSADOR 6.56GB

[复制链接]
电影首发 发表于 2015-11-11 08:58:00 | 显示全部楼层 |阅读模式

译  名 尖叫公园
片  名 Scream Park
年  代 2012
国  家 美国
类  别 恐怖
语  言 英语
上映日期 2013-01-06
片  长 85分钟
导  演 Cary Hill
主  演 Nicole Beattie
      Doug Bradley
      Kailey Marie Harris
      Dean Jacobs
      Tyler Kale
      Ian Lemmon
      Alicia Marie Marcucci
      Carrie Lee Martz
      Nivek Ogre
      Kyle Riordan
      Steve Rudzinski
      Wendy Wygant


简  介


  Fright Land amusement park is closing down for the last time. Lack of business and interest have lead to poor sales and no profit. The park's owner| Mr. Hyde (played
by Doug Bradley) devises a scheme to sell tickets once again. He hires two backwoods Appalachian men to break into the park after hours and gruesomely dispatch the
park's employees. Hyde believes the murders will create a media sensation for the park. People will buy tickets once again just to see where it all happened. Once
it's done| they can even begin to sell souvenirs and theme rides based on the murders.




Video
ID                                       : 1
Format                                   : AVC
Format/Info                              : Advanced Video Codec
Format profile                           : [email protected]
Format settings, CABAC                   : Yes
Format settings, ReFrames                : 4 frames
Codec ID                                 : V_MPEG4/ISO/AVC
Duration                                 : 1h 24mn
Bit rate                                 : 9 625 Kbps
Width                                    : 1 920 pixels
Height                                   : 1 080 pixels
Display aspect ratio                     : 16:9
Frame rate mode                          : Constant
Frame rate                               : 23.976 fps
Color space                              : YUV
Chroma subsampling                       : 4:2:0
Bit depth                                : 8 bits
Scan type                                : Progressive
Bits/(Pixel*Frame)                       : 0.194
Stream size                              : 5.54 GiB (84%)
Writing library                          : x264 core 142 r2491 24e4fed
Encoding settings                        : cabac=1 / ref=4 / deblock=1:0:0 / analyse=0x3:0x113 / me=umh / subme=7 / psy=1 / psy_rd=1.00:0.00 / mixed_ref=1 / me_range=16 / chroma_me=1 / trellis=1 / 8x8dct=1 / cqm=0 / deadzone=21,11 / fast_pskip=0 / chroma_qp_offset=-2 / threads=12 / lookahead_threads=2 / sliced_threads=0 / nr=0 / decimate=1 / interlaced=0 / bluray_compat=0 / constrained_intra=0 / bframes=3 / b_pyramid=2 / b_adapt=2 / b_bias=0 / direct=3 / weightb=1 / open_gop=0 / weightp=2 / keyint=250 / keyint_min=23 / scenecut=40 / intra_refresh=0 / rc_lookahead=50 / rc=2pass / mbtree=1 / bitrate=9625 / ratetol=1.0 / qcomp=0.60 / qpmin=0 / qpmax=69 / qpstep=4 / cplxblur=20.0 / qblur=0.5 / ip_ratio=1.40 / aq=1:1.00
Default                                  : Yes
Forced                                   : No

Audio
ID                                       : 2
Format                                   : DTS
Format/Info                              : Digital Theater Systems
Mode                                     : 16
Format settings, Endianness              : Big
Codec ID                                 : A_DTS
Duration                                 : 1h 24mn
Bit rate mode                            : Constant
Bit rate                                 : 1 509 Kbps
Channel(s)                               : 2 channels
Channel positions                        : Front: L R
Sampling rate                            : 48.0 KHz
Bit depth                                : 16 bits
Compression mode                         : Lossy
Stream size                              : 910 MiB (14%)
Language                                 : German
Default                                  : Yes
Forced                                   : No





                                                                                                                                                                                                       

                                                                                                                       
                                                                                                                                                                                                                                                        Scream.Park.2012.UNCUT.1080p.BluRay.x264-AMBASSADOR.torrent (66.11 KB, 下载次数: 0)

回复

使用道具 举报

小黑屋|百度云资源论坛

本网站所有资源来自网络,如无意中侵犯了您的权益,请发邮件至 [email protected],立即清除相关链接

GMT+8, 2022-10-2 00:42 , Processed in 0.073257 second(s), 26 queries .

Powered by Discuz! X3.2

© 2001-2013 Comsenz Inc.

快速回复 返回顶部 返回列表