百度云资源论坛

 找回密码
 立即注册
搜索

[恐怖片] 怪谈/奇谈 Kwaidan.1964.JAPANESE.1080p.BluRay.x264.DTS-FGT 13.15GB

[复制链接]
电影首发 发表于 2015-11-11 08:58:00 | 显示全部楼层 |阅读模式

译  名 怪谈/奇谈
片  名 怪談
年  代 1964
国  家 日本
类  别 奇幻/恐怖
语  言 日语
上映日期 1964-12-29
片  长 183 分钟/Argentina: 162 分钟/Spain: 182 分钟(25 fps) (DVD edition)/USA: 125 分钟/Japan: 161 分钟(cut version)
导  演 小林正树
主  演 仲代达矢
      丹波哲郎
      渡辺美佐子
      三国连太郎 Rentarô Mikuni
      岸惠子
      新珠三千代 Michiyo Aratama
      志村乔 Takashi Shimura
      田中邦卫 Kunie Tanaka
      泷泽修
      中村雁治郎 Ganjiro Nakamura
      宫口精二 Seiji Miyaguchi
      仲谷升 Noboru Nakaya


简  介


  本片分为四个故事:《黑发》居住在京都的武士(三國連太郎 饰)厌倦了贫苦的生活,他抛弃妻子(新珠三千代 饰),与一个贵族小姐(渡辺美佐子 饰)结婚。然而现任妻子的冷酷让武士怀念起前妻的温柔贤淑,他再次与前妻相遇,结果却出人意料;《雪女》狂风暴雪的一日,青年(仲代達矢 饰)在山上邂逅美丽的雪女(岸恵子 饰)。雪女爱慕青年,饶他不死,但青年不得将这次相遇告知外人;《无耳芳一的故事》盲僧芳一(中村賀津雄 饰)的琵琶弹唱连鬼魂也分外欣赏,但经常与鬼接触势必折损阳寿,寺中的长老决定拯救芳一;《茶杯中》武士关内(中村翫右衛門 饰)喝茶时发现茶碗有一个陌生人的面孔,他打破茶碗,却引来了一个不速之客。
  本片根据小泉八云同名短篇小说改编,并荣获1965年戛纳电影节评委会特别奖、1966年每日电影最佳艺术指导和最佳摄影两项大奖。


获奖情况


  第38届奥斯卡金像奖 (1966)
  最佳外语片(提名)


  第18届戛纳电影节 (1965)
  主竞赛单元 金棕榈奖(提名) 小林正树
  主竞赛单元 评审团特别奖 小林正树
Video
ID                                       : 1
Format                                   : AVC
Format/Info                              : Advanced Video Codec
Format profile                           : [email protected]
Format settings, CABAC                   : Yes
Format settings, ReFrames                : 5 frames
Codec ID                                 : V_MPEG4/ISO/AVC
Duration                                 : 3h 3mn
Bit rate                                 : 9 496 Kbps
Width                                    : 1 920 pixels
Height                                   : 800 pixels
Display aspect ratio                     : 2.40:1
Frame rate mode                          : Constant
Frame rate                               : 23.976 fps
Color space                              : YUV
Chroma subsampling                       : 4:2:0
Bit depth                                : 8 bits
Scan type                                : Progressive
Bits/(Pixel*Frame)                       : 0.258
Stream size                              : 11.9 GiB (91%)
Writing library                          : x264 core 146 r2538 121396c
Encoding settings                        : cabac=1 / ref=5 / deblock=1:-3:-3 / analyse=0x3:0x133 / me=umh / subme=9 / psy=1 / psy_rd=1.00:0.00 / mixed_ref=1 / me_range=24 / chroma_me=1 / trellis=1 / 8x8dct=1 / cqm=0 / deadzone=21,11 / fast_pskip=0 / chroma_qp_offset=-2 / threads=6 / lookahead_threads=1 / sliced_threads=0 / nr=0 / decimate=0 / interlaced=0 / bluray_compat=0 / constrained_intra=0 / bframes=4 / b_pyramid=2 / b_adapt=2 / b_bias=0 / direct=1 / weightb=1 / open_gop=0 / weightp=2 / keyint=230 / keyint_min=23 / scenecut=40 / intra_refresh=0 / rc_lookahead=60 / rc=2pass / mbtree=1 / bitrate=9496 / ratetol=1.0 / qcomp=0.60 / qpmin=0 / qpmax=69 / qpstep=4 / cplxblur=20.0 / qblur=0.5 / vbv_maxrate=40000 / vbv_bufsize=30000 / nal_hrd=none / filler=0 / ip_ratio=1.40 / aq=1:1.00
Language                                 : Japanese
Default                                  : Yes
Forced                                   : No

Audio
ID                                       : 2
Format                                   : DTS
Format/Info                              : Digital Theater Systems
Mode                                     : 16
Format settings, Endianness              : Big
Codec ID                                 : A_DTS
Duration                                 : 3h 3mn
Bit rate mode                            : Constant
Bit rate                                 : 768 Kbps
Channel(s)                               : 1 channel
Channel positions                        : Front: C
Sampling rate                            : 48.0 KHz
Bit depth                                : 24 bits
Compression mode                         : Lossy
Stream size                              : 1 007 MiB (7%)
Language                                 : Japanese
Default                                  : Yes
Forced                                   : No

Text
ID                                       : 3
Format                                   : VobSub
Muxing mode                              : zlib
Codec ID                                 : S_VOBSUB
Codec ID/Info                            : Picture based subtitle format used on DVDs
Language                                 : English
Default                                  : Yes
Forced                                   : Yes

Menu
00:00:00.000                             : :00:00:00.000
00:04:00.240                             : :00:04:00.240
00:08:06.361                             : :00:08:06.361
00:16:53.179                             : :00:16:53.179
00:23:02.256                             : :00:23:02.256
00:34:10.757                             : :00:34:10.757
00:40:01.608                             : :00:40:01.608
00:47:49.617                             : :00:47:49.617
00:53:04.848                             : :00:53:04.848
00:55:34.164                             : :00:55:34.164
01:03:28.054                             : :01:03:28.054
01:06:15.722                             : :01:06:15.722
01:14:51.570                             : :01:14:51.570
01:22:58.223                             : :01:22:58.223
01:35:16.920                             : :01:35:16.920
01:37:44.692                             : :01:37:44.692
01:43:50.599                             : :01:43:50.599
01:47:10.633                             : :01:47:10.633
01:50:00.385                             : :01:50:00.385
01:54:46.296                             : :01:54:46.296
01:59:38.880                             : :01:59:38.880
02:04:29.504                             : :02:04:29.504
02:17:46.550                             : :02:17:46.550
02:19:55.345                             : :02:19:55.345
02:24:42.173                             : :02:24:42.173
02:32:57.585                             : :02:32:57.585
02:37:26.687                             : :02:37:26.687
02:39:02.533                             : :02:39:02.533
02:42:57.935                             : :02:42:57.935
02:51:00.459                             : :02:51:00.459
02:58:58.978                             : :02:58:58.978






                                                                                                                                                                                                       

                                                                                                                       
                                                                                                                                                                                                                                                        Kwaidan.1964.JAPANESE.1080p.BluRay.x264.DTS-FGT.torrent (66.34 KB, 下载次数: 0)

回复

使用道具 举报

小黑屋|百度云资源论坛

本网站所有资源来自网络,如无意中侵犯了您的权益,请发邮件至 [email protected],立即清除相关链接

GMT+8, 2022-9-27 00:03 , Processed in 0.095999 second(s), 26 queries .

Powered by Discuz! X3.2

© 2001-2013 Comsenz Inc.

快速回复 返回顶部 返回列表