百度云资源论坛

 找回密码
 立即注册
搜索

[惊悚片] 恐怖南瓜头 Pumpkinhead.1988.1080p.BluRay.x264.DTS-FGT 7.58GB

[复制链接]
电影首发 发表于 2015-11-11 08:58:00 | 显示全部楼层 |阅读模式

译  名 恐怖南瓜头
片  名 Pumpkinhead
年  代 1988
国  家 美国
类  别 奇幻/恐怖/惊悚
语  言 英语
上映日期 1988-09-01
片  长 86 分钟
导  演 斯坦 温斯顿 (Stan Winston)
主  演 Lance Henriksen


简  介


  电影《恐怖南瓜头》是典型的低成本恐怖片,以南瓜魔为吓唬观众的号召,看起来有点令人失笑,但爱好类型片的观众可能仍会乐此不疲。剧情描述过三名摩托车骑士在偏僻的荒野撞死了一名男孩,然后不顾而去。父亲艾德伤心欲绝,誓要替儿子报仇。他想起了童年时代亲眼见过南瓜魔杀人的恐怖威力,于是将自己出卖给恶灵,央求南瓜魔为他展开复仇行动。导演史登.温斯顿卖力地想营造出一个有恐怖气氛的荒野传说,可惜有心无力,成绩差强人意。




Video
ID                                       : 1
Format                                   : AVC
Format/Info                              : Advanced Video Codec
Format profile                           : [email protected]
Format settings, CABAC                   : Yes
Format settings, ReFrames                : 4 frames
Codec ID                                 : V_MPEG4/ISO/AVC
Duration                                 : 1h 26mn
Bit rate                                 : 10.8 Mbps
Width                                    : 1 920 pixels
Height                                   : 1 040 pixels
Display aspect ratio                     : 1.85:1
Frame rate mode                          : Constant
Frame rate                               : 23.976 fps
Color space                              : YUV
Chroma subsampling                       : 4:2:0
Bit depth                                : 8 bits
Scan type                                : Progressive
Bits/(Pixel*Frame)                       : 0.225
Stream size                              : 6.52 GiB (86%)
Writing library                          : x264 core 148 r2638 7599210
Encoding settings                        : cabac=1 / ref=4 / deblock=1:0:0 / analyse=0x3:0x133 / me=umh / subme=9 / psy=1 / psy_rd=1.00:0.00 / mixed_ref=1 / me_range=16 / chroma_me=1 / trellis=1 / 8x8dct=1 / cqm=0 / deadzone=21,11 / fast_pskip=0 / chroma_qp_offset=-2 / threads=6 / lookahead_threads=1 / sliced_threads=0 / nr=0 / decimate=1 / interlaced=0 / bluray_compat=0 / constrained_intra=0 / bframes=3 / b_pyramid=2 / b_adapt=1 / b_bias=0 / direct=1 / weightb=1 / open_gop=0 / weightp=2 / keyint=250 / keyint_min=23 / scenecut=40 / intra_refresh=0 / rc_lookahead=40 / rc=crf / mbtree=1 / crf=20.0 / qcomp=0.60 / qpmin=0 / qpmax=69 / qpstep=4 / ip_ratio=1.40 / aq=1:1.00
Language                                 : English
Default                                  : Yes
Forced                                   : No

Audio
ID                                       : 2
Format                                   : DTS
Format/Info                              : Digital Theater Systems
Mode                                     : 16
Format settings, Endianness              : Big
Codec ID                                 : A_DTS
Duration                                 : 1h 26mn
Bit rate mode                            : Constant
Bit rate                                 : 1 509 Kbps
Channel(s)                               : 6 channels
Channel positions                        : Front: L C R, Side: L R, LFE
Sampling rate                            : 48.0 KHz
Bit depth                                : 24 bits
Compression mode                         : Lossy
Stream size                              : 934 MiB (12%)
Language                                 : English
Default                                  : Yes
Forced                                   : No

Menu
00:00:00.000                             : en:00:00:00.000
00:07:52.009                             : en:00:07:52.009
00:15:44.018                             : en:00:15:44.018
00:23:36.028                             : en:00:23:36.028
00:31:28.037                             : en:00:31:28.037
00:39:20.046                             : en:00:39:20.046
00:47:12.056                             : en:00:47:12.056
00:55:04.065                             : en:00:55:04.065
01:02:56.074                             : en:01:02:56.074
01:10:48.084                             : en:01:10:48.084
01:18:40.093                             : en:01:18:40.093






                                                                                                                                                                                                       

                                                                                                                       
                                                                                                                                                                                                                                                        Pumpkinhead.1988.1080p.BluRay.x264.DTS-FGT.torrent (76.4 KB, 下载次数: 0)

回复

使用道具 举报

小黑屋|百度云资源论坛

本网站所有资源来自网络,如无意中侵犯了您的权益,请发邮件至 [email protected],立即清除相关链接

GMT+8, 2022-12-6 19:56 , Processed in 0.087242 second(s), 26 queries .

Powered by Discuz! X3.2

© 2001-2013 Comsenz Inc.

快速回复 返回顶部 返回列表