百度云资源论坛

 找回密码
 立即注册
搜索

恋恋笔记本/深情日记/写我情真 The.Notebook.2004.1080p.BluRay.x264.DTS-FGT 10GB .. ...

[复制链接]
电影首发 发表于 2015-11-11 08:58:00 | 显示全部楼层 |阅读模式

译  名 恋恋笔记本/深情日记/写我情真/手札情缘/忘了·忘不了/恋恋记事本/恋爱日记
片  名 The Notebook
年  代 2004
国  家 美国
类  别 剧情/爱情
语  言 英语
上映日期 2004-06-25(美国)
片  长 123分钟
导  演 尼克·卡索维茨 Nick Cassavetes
主  演 瑞恩·高斯林 Ryan Gosling
      瑞秋·麦克亚当斯 Rachel McAdams
      吉娜·罗兰兹 Gena Rowlands
      詹姆斯·加纳 James Garner
      斯塔尔勒塔·杜波利斯 Starletta DuPois
      凯文·康诺利 Kevin Connolly
      希瑟·沃奎斯特 Heather Wahlquist
      Geoffrey Knight


简  介


  一个浸润着鲜红与纯白的爱情故事,写在一本洒满昏黄的笔记本上,被一位老先生(詹姆斯•加纳饰),一遍一遍的讲述。老太太(吉娜•罗兰饰)总是静静的听着,好奇的追问结果。在一家疗养院,这样不变的场景每天都会上演。
  笔记本上,秀美的字迹,记载着发生在那个夏天的爱情。艾莉(蕾切尔•麦克亚当斯饰)是富有人家的千金,她随家人来到小镇避暑。在一个充满梦幻的游乐场,邂逅了诺亚(莱安•高斯利饰)。诺亚没有钱,却活的很快乐。艾莉在他那学会了自由,得到了欢笑,两人很快热恋起来。然而在艾莉父母的阻挠下,相爱的两个人,就被分开在夏天结束的那一刻。随着诺亚的365封信被偷偷藏起,艾莉在7年后终于放弃了等待。就在她要步入教堂的前一天,突然在报纸上看到了诺亚曾许诺给自己建造的白色房子。一切记忆,全部苏醒……
  也许,应该苏醒的,不是故事中的,而是听故事的人。


获奖情况


  第14届MTV电影奖 (2005)
  MTV电影奖 最佳女演员(提名) 瑞秋·麦克亚当斯
  MTV电影奖 最佳吻戏 瑞恩·高斯林 / 瑞秋·麦克亚当斯




Video
ID                                       : 1
Format                                   : AVC
Format/Info                              : Advanced Video Codec
Format profile                           : [email protected]
Format settings, CABAC                   : Yes
Format settings, ReFrames                : 4 frames
Codec ID                                 : V_MPEG4/ISO/AVC
Duration                                 : 2h 3mn
Bit rate                                 : 10.0 Mbps
Width                                    : 1 920 pixels
Height                                   : 816 pixels
Display aspect ratio                     : 2.35:1
Frame rate mode                          : Constant
Frame rate                               : 23.976 fps
Color space                              : YUV
Chroma subsampling                       : 4:2:0
Bit depth                                : 8 bits
Scan type                                : Progressive
Bits/(Pixel*Frame)                       : 0.268
Stream size                              : 8.49 GiB (85%)
Writing library                          : x264 core 66 r1093M 1df50b9
Encoding settings                        : cabac=1 / ref=4 / deblock=1:-2:-1 / analyse=0x3:0x113 / me=umh / subme=7 / psy_rd=1.0:0.0 / mixed_ref=1 / me_range=16 / chroma_me=1 / trellis=1 / 8x8dct=1 / cqm=0 / deadzone=21,11 / chroma_qp_offset=-2 / threads=6 / nr=0 / decimate=1 / mbaff=0 / bframes=16 / b_pyramid=1 / b_adapt=1 / b_bias=0 / direct=3 / wpredb=1 / keyint=250 / keyint_min=25 / scenecut=40(pre) / rc=2pass / bitrate=10049 / ratetol=1.0 / qcomp=0.60 / qpmin=10 / qpmax=51 / qpstep=4 / cplxblur=20.0 / qblur=0.5 / ip_ratio=1.40 / pb_ratio=1.30 / aq=1:1.00
Language                                 : English
Default                                  : Yes
Forced                                   : No

Audio
ID                                       : 2
Format                                   : DTS
Format/Info                              : Digital Theater Systems
Mode                                     : 16
Format settings, Endianness              : Big
Codec ID                                 : A_DTS
Duration                                 : 2h 3mn
Bit rate mode                            : Constant
Bit rate                                 : 1 510 Kbps
Channel(s)                               : 6 channels
Channel positions                        : Front: L C R, Side: L R, LFE
Sampling rate                            : 48.0 KHz
Bit depth                                : 24 bits
Compression mode                         : Lossy
Stream size                              : 1.31 GiB (13%)
Language                                 : English
Default                                  : Yes
Forced                                   : No





                                                                                                                                                                                                       

                                                                                                                       
                                                                                                                                                                                                                                                        The.Notebook.2004.1080p.BluRay.x264.DTS-FGT.torrent (100.59 KB, 下载次数: 0)

回复

使用道具 举报

小黑屋|百度云资源论坛

本网站所有资源来自网络,如无意中侵犯了您的权益,请发邮件至 [email protected],立即清除相关链接

GMT+8, 2022-9-29 10:23 , Processed in 0.077191 second(s), 26 queries .

Powered by Discuz! X3.2

© 2001-2013 Comsenz Inc.

快速回复 返回顶部 返回列表