百度云资源论坛

 找回密码
 立即注册
搜索

[剧情片] [斯坦福监狱实验.The.Stanford.Prison.Experiment][DVDRip-MP4/1.03G][外挂英文字幕] ...

[复制链接]
电影首发 发表于 2015-11-10 17:18:00 | 显示全部楼层 |阅读模式

导演: 凯尔·帕特里克·奥瓦内兹
编剧: Tim Talbott
主演: 埃兹拉·米勒 / 李起弘 / 奥莉薇·瑟尔比 / 比利·克鲁德普 / 迈克尔·安格拉诺 / 更多...
类型: 剧情 / 惊悚
制片国家/地区: 美国
语言: 英语
上映日期: 2015-07-17(美国)
片长: 122分钟
又名: 史丹福監獄實驗(港)
IMDb链接: tt0420293
斯坦福监狱实验的剧情简介  ·  ·  ·  ·  ·  ·
  本片由真实事件改编而成,故事发生在1970年代初的斯坦福大学,一群大学生进行了一场关于人类行为的研究试验。他们分成两伙人,一伙人扮演监狱狱警,另外一些人则扮演囚犯,在24小时内开始模拟监狱里的日常生活。结果证明,扮演狱警的人在模拟监狱的情境中,开始变得有暴力倾向,而扮演囚犯的人则预谋造反。试验不久就被叫停,但其研究结果许多年来一直为人们所关注,引起了广泛的争议。

‍Video‍‍‍‍‍‍‍‍‍‍‍‍‍‍‍‍‍‍‍‍‍‍
ID                                       : 1
Format                                   : AVC
Format/Info                              : Advanced Video Codec
Format profile                           : [email protected]
Format settings, CABAC                   : Yes
Format settings, ReFrames                : 5 frames
Codec ID                                 : avc1
Codec ID/Info                            : Advanced Video Coding
Duration                                 : 2h 1mn
Bit rate                                 : 1 100 Kbps
Width                                    : 720 pixels
Height                                   : 288 pixels
Display aspect ratio                     : 2.500
Frame rate mode                          : Constant
Frame rate                               : 23.976 fps
Color space                              : YUV
Chroma subsampling                       : 4:2:0
Bit depth                                : 8 bits
Scan type                                : Progressive
Bits/(Pixel*Frame)                       : 0.221
Stream size                              : 942 MiB (89%)
Title                                    : The.Stanford.Prison.Experiment.2015.DVDRip.x264-RARBG
Writing library                          : x264 core 146 r2555 0c21480
Encoding settings                        : cabac=1 / ref=5 / deblock=1:-2:-2 / analyse=0x3:0x113 / me=umh / subme=8 / psy=1 / psy_rd=0.90:0.00 / mixed_ref=1 / me_range=16 / chroma_me=1 / trellis=1 / 8x8dct=1 / cqm=0 / deadzone=21,11 / fast_pskip=1 / chroma_qp_offset=-2 / threads=8 / lookahead_threads=2 / sliced_threads=0 / nr=0 / decimate=1 / interlaced=0 / bluray_compat=0 / constrained_intra=0 / bframes=3 / b_pyramid=2 / b_adapt=2 / b_bias=0 / direct=3 / weightb=1 / open_gop=0 / weightp=2 / keyint=250 / keyint_min=25 / scenecut=40 / intra_refresh=0 / rc_lookahead=50 / rc=abr / mbtree=1 / bitrate=1100 / ratetol=1.0 / qcomp=0.60 / qpmin=0 / qpmax=69 / qpstep=4 / vbv_maxrate=31250 / vbv_bufsize=31250 / nal_hrd=none / filler=0 / ip_ratio=1.40 / aq=1:1.00

Audio
ID                                       : 2
Format                                   : AAC
Format/Info                              : Advanced Audio Codec
Format profile                           : LC
Codec ID                                 : 40
Duration                                 : 2h 1mn
Duration_LastFrame                       : 43ms
Bit rate mode                            : Variable
Bit rate                                 : 128 Kbps
Maximum bit rate                         : 31.3 Mbps
Channel(s)                               : 2 channels
Channel(s)_Original                      : 6 channels
Channel positions                        : Front: L C R, Side: L R, LFE
Sampling rate                            : 48.0 KHz
Compression mode                         : Lossy
Stream size                              : 112 MiB (11%)
Title                                    : The.Stanford.Prison.Experiment.2015.DVDRip.x264-RARBG
Language                                 : English

Menu #1
ID                                       : 3
Codec ID                                 : text
Duration                                 : 2h 1mn
Language                                 : English
Bit rate mode                            : CBR
00:00:00.000                             : Chapter 01
00:11:54.410                             : Chapter 02
00:22:31.077                             : Chapter 03
00:32:04.611                             : Chapter 04
00:42:55.678                             : Chapter 05
00:55:38.045                             : Chapter 06
01:05:25.013                             : Chapter 07
01:15:29.046                             : Chapter 08
01:28:46.747                             : Chapter 09
01:38:29.615                             : Chapter 10
01:50:23.516                             : Chapter 11
01:57:37.450                             : Chapter 12
02:01:46.117                             : Chapter 13

Menu #2
00:00:00.043                             : Chapter 01
00:11:54.410                             : Chapter 02
00:22:31.077                             : Chapter 03
00:32:04.611                             : Chapter 04‍‍
00:42:55.678                             : Chapter 05‍‍
00:55:38.045                             : Chapter 06‍‍
01:05:25.013                             : Chapter 07‍‍
01:15:29.046                             : Chapter 08‍‍
01:28:46.747                             : Chapter 09‍‍
01:38:29.615                             : Chapter 10‍‍
01:50:23.516                             : Chapter 11‍‍
01:57:37.450                             : Chapter 12‍‍
02:01:46.117                             : Chapter 13‍‍‍‍‍‍
                                                                                                                                                                                               

                                                                                                                       
                                                                                                                                                                                                                                                        The.Stanford.Prison.Experiment.2015.DVDRip.x264-RARBG.torrent (21.4 KB, 下载次数: 0)

回复

使用道具 举报

小黑屋|百度云资源论坛

本网站所有资源来自网络,如无意中侵犯了您的权益,请发邮件至 [email protected],立即清除相关链接

GMT+8, 2022-10-7 12:33 , Processed in 0.113253 second(s), 26 queries .

Powered by Discuz! X3.2

© 2001-2013 Comsenz Inc.

快速回复 返回顶部 返回列表