百度云资源论坛

 找回密码
 立即注册
搜索

狮子王/狮子王真人版 The.Lion.King.2019.1080p.3D.BluRay.Half-OU.x264....

[复制链接]
百度云资源 发表于 2019-11-8 10:46:52 | 显示全部楼层 |阅读模式
帖子完整标题:狮子王/狮子王真人版 The.Lion.King.2019.1080p.3D.BluRay.Half-OU.x264.TrueHD.7.1.Atmos-FGT 20.84GB




◎译  名 狮子王 / 狮子王真人版 / 狮子王真实版 / 狮子王真狮版
◎片  名 The Lion King
◎年  代 2019
◎产  地 美国
◎类  别 剧情 / 动画 / 冒险
◎语  言 英语 / 科萨语
◎上映日期 2019-07-12(中国大陆) / 2019-07-19(美国)
◎IMDb评分  7.1/10 from 104480 users
◎片  长 118分钟
◎导  演 乔恩·费儒 Jon Favreau
◎编  剧 杰夫·内桑森 Jeff Nathanson / 布兰达?查普曼 Brenda Chapman / 艾琳·梅琪 Irene Mecchi / 乔纳森·罗伯茨 Jonathan Roberts / 琳达·伍尔芙顿 Linda Woolverton
◎主  演 唐纳德·格洛弗 Donald Glover
       阿尔法·伍达德 Alfre Woodard
       詹姆斯·厄尔·琼斯 James Earl Jones
       切瓦特·埃加福特 Chiwetel Ejiofor
       科甘-迈克尔·凯 Keegan-Michael Key
       塞斯·罗根 Seth Rogen
       比利·艾希纳 Billy Eichner
       碧昂丝·诺尔斯 Beyoncé Knowles
       埃里克·安德烈 Eric André
       弗洛伦丝·卡松巴 Florence Kasumba
       约翰·卡尼 John Kani
       约翰·奥利弗 John Oliver
       艾米·塞德丽丝 Amy Sedaris


◎标  签 迪士尼 | 经典 | 动画 | 童年 | 美国 | 成长 | 2019 | 动物

◎简  介  

  非洲大草原上一轮红日冉冉升起,为高大的乞力马扎罗山披上层金色的光纱,所有的动物涌向了同一个地方——荣耀石,兴奋地等待着一个重大消息的宣布:它们的国王木法沙将迎来自己的新生儿。
  这个新生儿就是小狮子辛巴,它是木法沙的法定接班人、荣耀石未来的国王。
  小狮子王辛巴在众多热情的朋友的陪伴下,不但经历了生命中最光荣的时刻,也遭遇了最艰难的挑战,最后终于成为了森林之王,也在周而复始生生不息的自然中体会出生命的真义。

◎获奖情况  

  第5届豆瓣电影年度榜单(2018)
  最值得期待的外语电影(提名)
Video
ID                                       : 1
Format                                   : AVC
Format/Info                              : Advanced Video Codec
Format settings                          : CABAC / 3 Ref Frames
Format settings, CABAC                   : Yes
Format settings, Reference frames        : 3 frames
Codec ID                                 : V_MPEG4/ISO/AVC
Duration                                 : 1 h 58 min
Bit rate                                 : 16.0 Mb/s
Width                                    : 1 920 pixels
Height                                   : 1 080 pixels
Display aspect ratio                     : 16:9
Frame rate mode                          : Constant
Frame rate                               : 23.976 (24000/1001) FPS
Color space                              : YUV
Chroma subsampling                       : 4:2:0
Bit depth                                : 8 bits
Scan type                                : Progressive
Bits/(Pixel*Frame)                       : 0.322
Stream size                              : 13.2 GiB (63%)
Title                                    : The.Lion.King.2019.1080p.3D.BluRay.Half-OU.x264.TrueHD.7.1.Atmos-FGT
Writing library                          : x264 core 148
Encoding settings                        : cabac=1 / ref=3 / deblock=1:-1:-1 / analyse=0x3:0 / me=hex / subme=5 / psy=1 / psy_rd=1.00:0.00 / mixed_ref=0 / me_range=16 / chroma_me=1 / trellis=1 / 8x8dct=1 / cqm=0 / deadzone=21,11 / fast_pskip=0 / chroma_qp_offset=0 / threads=24 / lookahead_threads=6 / sliced_threads=0 / nr=0 / decimate=1 / interlaced=0 / bluray_compat=0 / constrained_intra=0 / bframes=2 / b_pyramid=0 / b_adapt=1 / b_bias=0 / direct=1 / weightb=0 / open_gop=0 / weightp=0 / keyint=24 / keyint_min=2 / scenecut=40 / intra_refresh=0 / rc=abr / mbtree=0 / bitrate=16000 / ratetol=1.0 / qcomp=0.60 / qpmin=0 / qpmax=69 / qpstep=4 / ip_ratio=1.40 / pb_ratio=1.30 / aq=1:1.00
Default                                  : Yes
Forced                                   : No
Color range                              : Limited
Color primaries                          : BT.709
Transfer characteristics                 : BT.709
Matrix coefficients                      : BT.709

Audio #1
ID                                       : 2
Format                                   : MLP FBA 16-ch
Format/Info                              : Meridian Lossless Packing FBA with 16-channel presentation
Commercial name                          : Dolby TrueHD with Dolby Atmos
Codec ID                                 : A_TRUEHD
Duration                                 : 1 h 58 min
Bit rate mode                            : Variable
Bit rate                                 : 4 929 kb/s
Maximum bit rate                         : 7 332 kb/s
Channel(s)                               : 8 channels
Channel layout                           : L R C LFE Ls Rs Lb Rb
Sampling rate                            : 48.0 kHz
Frame rate                               : 1 200.000 FPS (40 SPF)
Compression mode                         : Lossless
Stream size                              : 4.07 GiB (20%)
Title                                    : The.Lion.King.2019.1080p.3D.BluRay.Half-OU.x264.TrueHD.7.1.Atmos-FGT
Language                                 : English
Default                                  : Yes
Forced                                   : No
Number of dynamic objects                : 13
Bed channel count                        : 1 channel
Bed channel configuration                : LFE

Audio #2
ID                                       : 3
Format                                   : AC-3
Format/Info                              : Audio Coding 3
Commercial name                          : Dolby Digital
Codec ID                                 : A_AC3
Duration                                 : 1 h 58 min
Bit rate mode                            : Constant
Bit rate                                 : 640 kb/s
Channel(s)                               : 6 channels
Channel layout                           : L R C LFE Ls Rs
Sampling rate                            : 48.0 kHz
Frame rate                               : 31.250 FPS (1536 SPF)
Bit depth                                : 16 bits
Compression mode                         : Lossy
Stream size                              : 541 MiB (3%)
Title                                    : The.Lion.King.2019.1080p.3D.BluRay.Half-OU.x264.TrueHD.7.1.Atmos-FGT
Language                                 : English
Service kind                             : Complete Main
Default                                  : No
Forced                                   : No

Audio #3
ID                                       : 4
Format                                   : DTS
Format/Info                              : Digital Theater Systems
Codec ID                                 : A_DTS
Duration                                 : 1 h 58 min
Bit rate mode                            : Constant
Bit rate                                 : 1 509 kb/s
Channel(s)                               : 6 channels
Channel layout                           : C L R Ls Rs LFE
Sampling rate                            : 48.0 kHz
Frame rate                               : 93.750 FPS (512 SPF)
Bit depth                                : 24 bits
Compression mode                         : Lossy
Stream size                              : 1.25 GiB (6%)
Title                                    : The.Lion.King.2019.1080p.3D.BluRay.Half-OU.x264.TrueHD.7.1.Atmos-FGT
Language                                 : Spanish
Default                                  : No
Forced                                   : No

Audio #4
ID                                       : 5
Format                                   : AC-3
Format/Info                              : Audio Coding 3
Commercial name                          : Dolby Digital
Codec ID                                 : A_AC3
Duration                                 : 1 h 58 min
Bit rate mode                            : Constant
Bit rate                                 : 320 kb/s
Channel(s)                               : 2 channels
Channel layout                           : L R
Sampling rate                            : 48.0 kHz
Frame rate                               : 31.250 FPS (1536 SPF)
Bit depth                                : 16 bits
Compression mode                         : Lossy
Stream size                              : 271 MiB (1%)
Title                                    : The.Lion.King.2019.1080p.3D.BluRay.Half-OU.x264.TrueHD.7.1.Atmos-FGT
Language                                 : English
Service kind                             : Complete Main
Default                                  : No
Forced                                   : No

Audio #5
ID                                       : 6
Format                                   : E-AC-3
Format/Info                              : Enhanced AC-3
Commercial name                          : Dolby Digital Plus
Format profile                           : Blu-ray Disc
Codec ID                                 : A_EAC3
Duration                                 : 1 h 58 min
Bit rate mode                            : Constant
Bit rate                                 : 896 kb/s
Channel(s)                               : 8 channels
Channel layout                           : L R C LFE Ls Rs Lb Rb
Sampling rate                            : 48.0 kHz
Frame rate                               : 31.250 FPS (1536 SPF)
Compression mode                         : Lossy
Stream size                              : 758 MiB (4%)
Title                                    : The.Lion.King.2019.1080p.3D.BluRay.Half-OU.x264.TrueHD.7.1.Atmos-FGT
Language                                 : French
Service kind                             : Complete Main
Default                                  : No
Forced                                   : No

Audio #6
ID                                       : 7
Format                                   : E-AC-3
Format/Info                              : Enhanced AC-3
Commercial name                          : Dolby Digital Plus
Format profile                           : Blu-ray Disc
Codec ID                                 : A_EAC3
Duration                                 : 1 h 58 min
Bit rate mode                            : Constant
Bit rate                                 : 896 kb/s
Channel(s)                               : 8 channels
Channel layout                           : L R C LFE Ls Rs Lb Rb
Sampling rate                            : 48.0 kHz
Frame rate                               : 31.250 FPS (1536 SPF)
Compression mode                         : Lossy
Stream size                              : 758 MiB (4%)
Title                                    : The.Lion.King.2019.1080p.3D.BluRay.Half-OU.x264.TrueHD.7.1.Atmos-FGT
Language                                 : German
Service kind                             : Complete Main
Default                                  : No
Forced                                   : No

Text #1
ID                                       : 8
Format                                   : PGS
Muxing mode                              : zlib
Codec ID                                 : S_HDMV/PGS
Codec ID/Info                            : Picture based subtitle format used on BDs/HD-DVDs
Duration                                 : 1 h 52 min
Bit rate                                 : 48.8 kb/s
Count of elements                        : 3420
Stream size                              : 39.1 MiB (0%)
Title                                    : English-PGS
Language                                 : English
Default                                  : Yes
Forced                                   : No

Text #2
ID                                       : 9
Format                                   : PGS
Muxing mode                              : zlib
Codec ID                                 : S_HDMV/PGS
Codec ID/Info                            : Picture based subtitle format used on BDs/HD-DVDs
Duration                                 : 1 h 55 min
Bit rate                                 : 34.7 kb/s
Count of elements                        : 2556
Stream size                              : 28.8 MiB (0%)
Title                                    : French-PGS
Language                                 : French
Default                                  : No
Forced                                   : No

Text #3
ID                                       : 10
Format                                   : PGS
Muxing mode                              : zlib
Codec ID                                 : S_HDMV/PGS
Codec ID/Info                            : Picture based subtitle format used on BDs/HD-DVDs
Duration                                 : 1 h 55 min
Bit rate                                 : 38.4 kb/s
Count of elements                        : 2850
Stream size                              : 31.9 MiB (0%)
Title                                    : German-PGS
Language                                 : German
Default                                  : No
Forced                                   : No

Text #4
ID                                       : 11
Format                                   : PGS
Muxing mode                              : zlib
Codec ID                                 : S_HDMV/PGS
Codec ID/Info                            : Picture based subtitle format used on BDs/HD-DVDs
Duration                                 : 1 h 55 min
Bit rate                                 : 36.8 kb/s
Count of elements                        : 2704
Stream size                              : 30.5 MiB (0%)
Title                                    : Spanish-PGS
Language                                 : Spanish
Default                                  : No
Forced                                   : No

Text #5
ID                                       : 12
Format                                   : PGS
Muxing mode                              : zlib
Codec ID                                 : S_HDMV/PGS
Codec ID/Info                            : Picture based subtitle format used on BDs/HD-DVDs
Duration                                 : 1 h 43 min
Bit rate                                 : 30 b/s
Count of elements                        : 4
Stream size                              : 23.0 KiB (0%)
Title                                    : French-FORCED-PGS
Language                                 : French
Default                                  : No
Forced                                   : No

Text #6
ID                                       : 13
Format                                   : PGS
Muxing mode                              : zlib
Codec ID                                 : S_HDMV/PGS
Codec ID/Info                            : Picture based subtitle format used on BDs/HD-DVDs
Duration                                 : 4 s 588 ms
Bit rate                                 : 37.9 kb/s
Count of elements                        : 2
Stream size                              : 21.2 KiB (0%)
Title                                    : German-FORCED-PGS
Language                                 : German
Default                                  : No
Forced                                   : No

Text #7
ID                                       : 14
Format                                   : PGS
Muxing mode                              : zlib
Codec ID                                 : S_HDMV/PGS
Codec ID/Info                            : Picture based subtitle format used on BDs/HD-DVDs
Duration                                 : 5 s 422 ms
Bit rate                                 : 17.1 kb/s
Count of elements                        : 2
Stream size                              : 11.3 KiB (0%)
Title                                    : Spanish-FORCED-PGS
Language                                 : Spanish
Default                                  : No
Forced                                   : No

Menu
00:00:00.000                             : en:Chapter 01
00:04:50.498                             : en:Chapter 02
00:10:51.067                             : en:Chapter 03
00:17:47.691                             : en:Chapter 04
00:23:53.014                             : en:Chapter 05
00:30:00.131                             : en:Chapter 06
00:33:05.066                             : en:Chapter 07
00:37:09.310                             : en:Chapter 08
00:43:42.911                             : en:Chapter 09
00:50:47.335                             : en:Chapter 10
00:55:02.716                             : en:Chapter 11
00:59:48.459                             : en:Chapter 12
01:06:27.233                             : en:Chapter 13
01:14:32.092                             : en:Chapter 14
01:18:26.410                             : en:Chapter 15
01:23:07.899                             : en:Chapter 16
01:28:04.654                             : en:Chapter 17
01:33:10.876                             : en:Chapter 18
01:37:13.744                             : en:Chapter 19
01:44:39.189                             : en:Chapter 20
01:47:47.335                             : en:Chapter 21



                                                                                                                                                                                                        
                                                                                                                                                                                                                                                                                                                                                                                                                                                                                                                                                                                                                                                                                                                                                                                                                                                       2d0ace3843ba6bd74d1527dd6775718e.torrent (52.67 KB, 下载次数: 0)

回复

使用道具 举报

小黑屋|百度云资源论坛 |网站地图

本网站所有资源来自网络,如无意中侵犯了您的权益,请发邮件至 [email protected],立即清除相关链接

GMT+8, 2020-9-19 03:46 , Processed in 0.098677 second(s), 22 queries .

Powered by Discuz! X3.2

© 2001-2013 Comsenz Inc.

快速回复 返回顶部 返回列表