百度云资源论坛

 找回密码
 立即注册
搜索

掃毒2:天地對決 The.White.Storm.2.Drug.Lords.2019.CHINESE.720p.BluRay.X2...

[复制链接]
百度云资源 发表于 2019-10-29 11:54:04 | 显示全部楼层 |阅读模式
帖子完整标题:掃毒2:天地對決 The.White.Storm.2.Drug.Lords.2019.CHINESE.720p.BluRay.X264-WiKi 5.61GB




◎译  名 扫毒2天地对决 / The White Storm 2: Drug Lords / 扫毒2:天地对决
◎片  名 掃毒2:天地對決
◎年  代 2019
◎产  地 中国大陆 / 中国香港
◎类  别 剧情 / 动作 / 悬疑 / 犯罪
◎语  言 汉语普通话 / 粤语
◎上映日期 2019-07-05(中国大陆) / 2019-07-16(中国香港)
◎IMDb评分  6.2/10 from 263 users
◎片  长 99分钟
◎导  演 邱礼涛 Herman Yau
◎编  剧 李敏 Erica Lee
◎主  演 刘德华 Andy Lau
       古天乐 Louis Koo
       苗侨伟 Kiu Wai Miu
       林嘉欣 Karena Lam
       周秀娜 Chrissie Chaw
       应采儿 Cherrie Ying
       陈家乐 Carlos Chan
       卫诗雅 Michelle Wai
       郑则仕 Kent Cheng
       张国强 Kwok Keung Cheung
       陈佩诗 Peishi Chen
       狼森 Philippe Joly
       欧阳靖 Jin Auyeung
       恭硕良 Jun Kung
       林家栋 Ka Tung Lam
       李赏 Faith Lee
       张竣杰 Chun Kit Chang
       李灿森 Sam Lee


◎标  签 香港 | 警匪 | 犯罪 | 缉毒 | 毒品 | 动作 | 华仔 | 2019

◎简  介  

  毒品市场维持四分天下的格局已久,但自从地藏与墨西哥大毒枭跨境合作扩展势力,再加上一连串黑吃黑的动作,毒界变得风声鹤唳。另一方面,因儿时亲眼目睹父亲被毒品所毁而嫉毒如仇的慈善家兼金融巨子余顺天,正悬赏一亿歼灭香港最大毒贩,此举在社会上引起轩然大波。警员林正风本致力搜证拘捕地藏,毒贩却因巨额悬赏导致人身安全受威胁,他在执行保护毒贩的任务时深感无奈,但又被余顺天的出价所诱惑,陷入黑白正邪的心理挣扎。原来,余顺天和地藏有不可告人的同门关系,一场天地对决一触即发。
Video
ID                                       : 1
Format                                   : AVC
Format/Info                              : Advanced Video Codec
Format settings                          : CABAC / 11 Ref Frames
Format settings, CABAC                   : Yes
Format settings, Reference frames        : 11 frames
Codec ID                                 : V_MPEG4/ISO/AVC
Duration                                 : 1 h 39 min
Bit rate                                 : 7 459 kb/s
Width                                    : 1 280 pixels
Height                                   : 546 pixels
Display aspect ratio                     : 2.35:1
Frame rate mode                          : Constant
Frame rate                               : 24.000 FPS
Color space                              : YUV
Chroma subsampling                       : 4:2:0
Bit depth                                : 8 bits
Scan type                                : Progressive
Bits/(Pixel*Frame)                       : 0.445
Stream size                              : 5.17 GiB (92%)
Writing library                          : x264 core 157 r2867+103 0d6443f t_mod_Custom_2 [1 X86_64]
Encoding settings                        : cabac=1 / ref=11 / deblock=1:-3:-3 / analyse=0x3:0x133 / me=umh / subme=10 / psy=1 / fade_compensate=0.00 / psy_rd=1.00:0.00 / mixed_ref=1 / me_range=32 / chroma_me=1 / trellis=2 / 8x8dct=1 / cqm=0 / deadzone=21,11 / fast_pskip=0 / chroma_qp_offset=-2 / threads=17 / lookahead_threads=2 / sliced_threads=0 / nr=0 / decimate=0 / interlaced=0 / bluray_compat=0 / constrained_intra=0 / fgo=0 / bframes=8 / b_pyramid=2 / b_adapt=2 / b_bias=0 / direct=3 / weightb=1 / open_gop=0 / weightp=2 / keyint=250 / keyint_min=24 / scenecut=40 / intra_refresh=0 / rc=crf / mbtree=0 / crf=15.1000 / qcomp=0.60 / qpmin=0:0:0 / qpmax=69:69:69 / qpstep=4 / ip_ratio=1.30 / pb_ratio=1.20 / aq=3:0.85 / aq-sensitivity=10.00 / aq-factor=1.00:1.00:1.00 / aq2=0 / aq3=0
Language                                 : English
Default                                  : Yes
Forced                                   : No

Audio
ID                                       : 2
Format                                   : AC-3
Format/Info                              : Audio Coding 3
Commercial name                          : Dolby Digital
Codec ID                                 : A_AC3
Duration                                 : 1 h 39 min
Bit rate mode                            : Constant
Bit rate                                 : 640 kb/s
Channel(s)                               : 6 channels
Channel layout                           : L R C LFE Ls Rs
Sampling rate                            : 48.0 kHz
Frame rate                               : 31.250 FPS (1536 SPF)
Bit depth                                : 16 bits
Compression mode                         : Lossy
Stream size                              : 454 MiB (8%)
Title                                    : Cantonese
Language                                 : Chinese
Service kind                             : Complete Main
Default                                  : Yes
Forced                                   : No

Text #1
ID                                       : 3
Format                                   : UTF-8
Codec ID                                 : S_TEXT/UTF8
Codec ID/Info                            : UTF-8 Plain Text
Duration                                 : 1 h 33 min
Bit rate                                 : 45 b/s
Count of elements                        : 1446
Stream size                              : 31.3 KiB (0%)
Language                                 : English
Default                                  : Yes
Forced                                   : No

Text #2
ID                                       : 4
Format                                   : UTF-8
Codec ID                                 : S_TEXT/UTF8
Codec ID/Info                            : UTF-8 Plain Text
Duration                                 : 1 h 33 min
Bit rate                                 : 41 b/s
Count of elements                        : 1441
Stream size                              : 28.6 KiB (0%)
Title                                    : CHS
Language                                 : Chinese
Default                                  : No
Forced                                   : No

Text #3
ID                                       : 5
Format                                   : UTF-8
Codec ID                                 : S_TEXT/UTF8
Codec ID/Info                            : UTF-8 Plain Text
Duration                                 : 1 h 33 min
Bit rate                                 : 41 b/s
Count of elements                        : 1441
Stream size                              : 28.6 KiB (0%)
Title                                    : CHT
Language                                 : Chinese
Default                                  : No
Forced                                   : No

Menu
00:00:00.000                             : en:00:00:00.000
00:13:58.000                             : en:00:13:58.000
00:20:48.875                             : en:00:20:48.875
00:27:56.750                             : en:00:27:56.750
00:36:19.167                             : en:00:36:19.167
00:45:58.958                             : en:00:45:58.958
00:52:59.833                             : en:00:52:59.833
01:06:52.750                             : en:01:06:52.750
01:12:15.958                             : en:01:12:15.958
01:18:07.292                             : en:01:18:07.292
01:24:49.125                             : en:01:24:49.125
01:35:06.000                             : en:01:35:06.000



                                                                                                                                                                                                        
                                                                                                                                                                                                                                                                                                                                                                                                                                                                                                                                                                                                                                                                                                                                                                                                                         341b65cb03e9abcc9b7f88cb49530a4c.torrent (28.61 KB, 下载次数: 0)

回复

使用道具 举报

小黑屋|百度云资源论坛 |网站地图

本网站所有资源来自网络,如无意中侵犯了您的权益,请发邮件至 [email protected],立即清除相关链接

GMT+8, 2019-12-6 14:13 , Processed in 0.094160 second(s), 22 queries .

Powered by Discuz! X3.2

© 2001-2013 Comsenz Inc.

快速回复 返回顶部 返回列表