百度云资源论坛

 找回密码
 立即注册
搜索

我们和他们 Us.and.Them.2017.1080p.BluRay.x264.DTS-FGT 7.52GB

[复制链接]
百度云电影 发表于 2019-10-28 11:55:41 | 显示全部楼层 |阅读模式
帖子完整标题:我们和他们 Us.and.Them.2017.1080p.BluRay.x264.DTS-FGT 7.52GB




◎译  名 我们和他们 / Lucky?
◎片  名 Us and Them
◎年  代 2017
◎产  地 英国
◎类  别 剧情 / 惊悚 / 犯罪
◎语  言 英语
◎上映日期 2017-03-10(西南偏南电影节)
◎IMDb评分  5.2/10 from 585 users
◎片  长 83分钟
◎导  演 Joe Martin
◎编  剧 Joe Martin
◎主  演 杰克·罗思 Jack Roth
       索菲 Sophie Colquhoun
       蒂姆·本廷克 Tim Bentinck
       Carolyn Backhouse
       安德鲁·蒂曼 Andrew Tiernan
       Daniel Kendrick
       Paul Westwood
       Louis Dempsey
       丹尼尔·厄根 Daniel Eghan
       劳拉·马塔沙 Laura Matassa
       Sophie Rose Miller
       Geoffrey Osborne


◎标  签 [歐美] | Crime | Comedy

◎简  介  

  A darkly comic, raw and controversial thriller that packs a hard punch at the inequalities and divisions that led to Brexit and Trump's victory. Danny (Jack Roth), an ordinary working class kid, is angry and frustrated at the rough deal he faces. When he confronts Conrad (Tim Bentinck) a member of today's privileged elite, he aims to teach him and his kind a lesson they will never forget. Holding Conrad and his family hostage in their plush mansion, Danny and his pals force Conrad into a deadly game of chance. Danny's master plan is to kick-start a revolution by streaming attacks against the super-rich one percent on the web. His ultimate goal? To terrify the elite into bringing about change. Danny's cohorts, however, have other ideas - and in a confusing cocktail of terror, deceit and twisting narrative, we are left wondering which side people are on - and everyone's values are questioned. With its visceral energy and unsettling stream of consciousness plot, 'Us and Them' is the ...

◎获奖情况  

  第20届英国独立电影奖(2017)
  最佳剪辑(提名)
Video
ID                                       : 1
Format                                   : AVC
Format/Info                              : Advanced Video Codec
Format settings                          : CABAC / 4 Ref Frames
Format settings, CABAC                   : Yes
Format settings, Reference frames        : 4 frames
Codec ID                                 : V_MPEG4/ISO/AVC
Duration                                 : 1 h 22 min
Bit rate                                 : 11.5 Mb/s
Width                                    : 1 920 pixels
Height                                   : 804 pixels
Display aspect ratio                     : 2.40:1
Frame rate mode                          : Constant
Frame rate                               : 25.000 FPS
Color space                              : YUV
Chroma subsampling                       : 4:2:0
Bit depth                                : 8 bits
Scan type                                : Progressive
Bits/(Pixel*Frame)                       : 0.298
Stream size                              : 6.64 GiB (88%)
Title                                    : Us.and.Them.2017.1080p.BluRay.x264.DTS-FGT
Writing library                          : x264 core 148 r2795M aaa9aa8
Encoding settings                        : cabac=1 / ref=4 / deblock=1:-2:-2 / analyse=0x3:0x113 / me=umh / subme=9 / psy=1 / psy_rd=1.00:0.15 / mixed_ref=1 / me_range=16 / chroma_me=1 / trellis=2 / 8x8dct=1 / cqm=0 / deadzone=21,11 / fast_pskip=1 / chroma_qp_offset=-3 / threads=48 / lookahead_threads=3 / sliced_threads=0 / nr=0 / decimate=1 / interlaced=0 / bluray_compat=0 / constrained_intra=0 / bframes=3 / b_pyramid=2 / b_adapt=1 / b_bias=0 / direct=3 / weightb=1 / open_gop=0 / weightp=2 / keyint=250 / keyint_min=25 / scenecut=40 / intra_refresh=0 / rc_lookahead=50 / rc=2pass / mbtree=1 / bitrate=11500 / ratetol=1.0 / qcomp=0.60 / qpmin=0 / qpmax=69 / qpstep=4 / cplxblur=20.0 / qblur=0.5 / vbv_maxrate=31250 / vbv_bufsize=31250 / nal_hrd=none / filler=0 / ip_ratio=1.40 / aq=1:1.00
Language                                 : English
Default                                  : Yes
Forced                                   : No

Audio
ID                                       : 2
Format                                   : DTS
Format/Info                              : Digital Theater Systems
Codec ID                                 : A_DTS
Duration                                 : 1 h 22 min
Bit rate mode                            : Constant
Bit rate                                 : 1 509 kb/s
Channel(s)                               : 6 channels
Channel layout                           : C L R Ls Rs LFE
Sampling rate                            : 48.0 kHz
Frame rate                               : 93.750 FPS (512 SPF)
Bit depth                                : 24 bits
Compression mode                         : Lossy
Stream size                              : 893 MiB (12%)
Title                                    : Us.and.Them.2017.1080p.BluRay.x264.DTS-FGT
Language                                 : English
Default                                  : Yes
Forced                                   : No

Menu
00:00:00.000                             : en:Chapter 01
00:09:40.000                             : en:Chapter 02
00:20:22.720                             : en:Chapter 03
00:30:36.000                             : en:Chapter 04
00:41:22.000                             : en:Chapter 05
00:52:35.800                             : en:Chapter 06
01:01:06.840                             : en:Chapter 07
01:12:04.080                             : en:Chapter 08
01:18:34.120                             : en:Chapter 09



                                                                                                                                                                                                        
                                                                                                                                                                                                                                                                                                                                                                                                                                                                                                                                                                                                                                                                                                                                                                                                                           51ff4f6d5d1d3963c2d042291811e730.torrent (38.08 KB, 下载次数: 0)

回复

使用道具 举报

小黑屋|百度云资源论坛 |网站地图

本网站所有资源来自网络,如无意中侵犯了您的权益,请发邮件至 [email protected],立即清除相关链接

GMT+8, 2019-12-6 13:25 , Processed in 0.105999 second(s), 22 queries .

Powered by Discuz! X3.2

© 2001-2013 Comsenz Inc.

快速回复 返回顶部 返回列表