百度云资源论坛

 找回密码
 立即注册
搜索

逃出绝命镇/访?吓 Get.Out.2017.1080p.BluRay.x264-SPARKS 7.65GB

[复制链接]
百度云资源 发表于 2019-10-28 11:55:41 | 显示全部楼层 |阅读模式


帖子完整标题:逃出绝命镇/访?吓 Get.Out.2017.1080p.BluRay.x264-SPARKS 7.65GB




◎译  名 逃出绝命镇 / 访?吓(港)
◎片  名 Get Out
◎年  代 2017
◎产  地 美国
◎类  别 悬疑 / 惊悚 / 恐怖
◎语  言 英语
◎上映日期 2017-01-23(圣丹斯电影节) / 2017-02-24(美国)
◎IMDb评分  7.7/10 from 418615 users
◎片  长 104分钟
◎导  演 乔丹·皮尔 Jordan Peele
◎编  剧 乔丹·皮尔 Jordan Peele
◎主  演 丹尼尔·卡卢亚 Daniel Kaluuya
       艾莉森·威廉姆斯 Allison Williams
       凯瑟琳·基纳 Catherine Keener
       布莱德利·惠特福德 Bradley Whitford
       卡赖伯·兰德里·琼斯 Caleb Landry Jones
       马库斯·亨德森 Marcus Henderson
       贝蒂·加布里埃尔 Betty Gabriel
       勒凯斯·斯坦菲尔德 Lakeith Stanfield
       斯蒂芬·鲁特 Stephen Root
       李雷尔·哈瓦瑞 LilRel Howery
       艾希礼·勒孔特·坎贝尔 Ashley LeConte Campbell
       卡伦·L·拉基 Caren L. Larkey
       朱莉·安·多恩 Julie Ann Doan
       杰拉尔丁·辛格 Geraldine Singer
       理查德·赫德 Richard Herd
       埃里卡·亚历山大 Erika Alexander


◎标  签 悬疑 | 惊悚 | 种族 | 美国 | 恐怖 | 黑人 | 剧情 | 2017

◎简  介  

  黑人小伙克里斯(丹尼尔·卡卢亚 Daniel Kaluuya 饰)和白人女孩露丝(艾莉森·威廉姆斯 Allison Williams 饰)相恋,虽然两人之间的感情十分要好,但克里斯一直为自己的肤色心存芥蒂。某日,两人相约前往露丝家做客,在那里,克里斯见到了露丝的父母迪恩(布莱德利·惠特福德 Bradley Whitford 饰)和米西(凯瑟琳·基纳 Catherine Keener 饰),除了露丝的弟弟吉瑞米(卡莱伯·兰德里·琼斯 Caleb Landry Jones 饰)对克里斯展现出了一丝敌意外,一切都堪称完美。
  隔日,克里斯参加了露丝家举办的派对,在派对中,克里斯遇见了旧友安德鲁(凯斯·斯坦菲尔德 Keith Stanfield 饰),让克里斯百思不得其解的是,安德鲁的穿着、谈吐和举止和先前大相径庭,判若两人。种种诡异的蛛丝马迹让克里斯渐渐察觉,自己似乎陷入了一个阴谋之中。

◎获奖情况  

  第90届奥斯卡金像奖(2018)
  最佳影片(提名) 乔丹·皮尔 / 杰森·布伦 / 肖恩·麦基特里克 / 爱德华·H·哈姆
  最佳导演(提名) 乔丹·皮尔
  最佳男主角(提名) 丹尼尔·卡卢亚
  最佳原创剧本 乔丹·皮尔

  第75届金球奖(2018)
  电影类 最佳音乐/喜剧片(提名)
  电影类 音乐/喜剧片最佳男主角(提名) 丹尼尔·卡卢亚

  第71届英国电影学院奖(2018)
  电影奖 最佳男主角(提名) 丹尼尔·卡卢亚
  电影奖 最佳原创剧本(提名) 乔丹·皮尔

  第26届MTV电影奖(2017)
  MTV电影奖 年度电影(提名)
  MTV电影奖 最佳表演(提名) 丹尼尔·卡卢亚
  MTV电影奖 最佳喜剧表演 里尔·莱尔·哈瓦瑞
  MTV电影奖 最佳银幕组合(提名) 丹尼尔·卡卢亚 / 里尔·莱尔·哈瓦瑞
  MTV电影奖 最佳反派(提名) 艾莉森·威廉姆斯

  第70届美国导演工会奖(2018)
  最佳电影导演(提名) 乔丹·皮尔
  最佳新人导演奖 乔丹·皮尔

  第24届美国演员工会奖(2018)
  电影奖 最佳男主角(提名) 丹尼尔·卡卢亚
  电影奖 最佳群戏(提名)

  第70届美国编剧工会奖(2018)
  电影奖 最佳原创剧本 乔丹·皮尔

  第29届美国制片人工会奖(2018)
  最佳电影制片人奖(提名)

  第68届美国剪辑工会奖(2018)
  音乐/喜剧片最佳剪辑(提名) 格雷戈里·普罗金

  第22届美国艺术指导工会奖(2018)
  电影奖 最佳当代电影艺术指导(提名)

  第20届美国服装设计工会奖(2018)
  现代电影最佳服装设计(提名) 娜丁·哈德斯

  第83届纽约影评人协会奖(2017)
  最佳处女作 乔丹·皮尔

  第89届美国国家评论协会奖(2017)
  最佳导演处女作 乔丹·皮尔
  最佳群戏
  年度佳片

  第23届美国评论家选择电影奖(2018)
  最佳影片(提名)
  最佳导演(提名) 乔丹·皮尔
  最佳男主角(提名) 丹尼尔·卡卢亚
  最佳科幻/恐怖片
  最佳原创剧本 乔丹·皮尔

  第33届美国独立精神奖(2018)
  最佳影片
  最佳导演 乔丹·皮尔
  最佳男主角(提名) 丹尼尔·卡卢亚
  最佳剧本(提名) 乔丹·皮尔
  最佳剪辑(提名)

  第20届英国独立电影奖(2017)
  最佳外国独立电影

  第27届哥谭独立电影奖(2017)
  最佳影片(提名)
  最佳男演员(提名) 丹尼尔·卡卢亚
  最佳突破导演奖 乔丹·皮尔
  最佳剧本 乔丹·皮尔

  第18届美国电影学会奖(2017)
  年度佳片

  第22届金卫星奖(2018)
  电影部门 最佳剧情片(提名)
  电影部门 最佳导演 乔丹·皮尔
  电影部门 最佳原创剧本(提名) 乔丹·皮尔
  电影部门 最佳美术指导(提名)

  第52届美国国家影评人协会奖(2018)
  最佳影片(提名)
  最佳导演(提名) 乔丹·皮尔
  最佳男主角 丹尼尔·卡卢亚
  最佳剧本(提名) 乔丹·皮尔

  第16届华盛顿影评人协会奖(2017)
  最佳影片
  最佳原创剧本 乔丹·皮尔

  第38届波士顿影评人协会奖(2017)
  最佳男主角 丹尼尔·卡卢亚
  最佳处女作 乔丹·皮尔

  第43届洛杉矶影评人协会奖(2017)
  最佳剧本 乔丹·皮尔

  第30届芝加哥影评人协会奖(2017)
  最佳导演(提名) 乔丹·皮尔
  最佳原创剧本 乔丹·皮尔
  最佳剪辑(提名) 格雷戈里·普罗金
  最具潜力导演(提名) 乔丹·皮尔

  第21届美国在线影评人协会奖(2017)
  最佳影片
  最佳导演(提名) 乔丹·皮尔
  最佳男主角(提名) 丹尼尔·卡卢亚
  最佳原创剧本 乔丹·皮尔
  最佳突破表演(提名) 丹尼尔·卡卢亚
  最佳群戏(提名)

  第4届豆瓣电影年度榜单(2017)
  最受关注的非院线电影
  评分最高的恐怖片
  5月最受关注电影(提名)
Video
ID                                       : 1
Format                                   : AVC
Format/Info                              : Advanced Video Codec
Format settings, CABAC                   : Yes
Format settings, ReFrames                : 5 frames
Codec ID                                 : V_MPEG4/ISO/AVC
Duration                                 : 1h 44mn
Bit rate                                 : 9 015 Kbps
Width                                    : 1 920 pixels
Height                                   : 808 pixels
Display aspect ratio                     : 2.40:1
Frame rate mode                          : Constant
Frame rate                               : 23.976 fps
Color space                              : YUV
Chroma subsampling                       : 4:2:0
Bit depth                                : 8 bits
Scan type                                : Progressive
Bits/(Pixel*Frame)                       : 0.242
Stream size                              : 6.55 GiB (86%)
Writing library                          : x264 core 148 r2744 b97ae06
Encoding settings                        : cabac=1 / ref=5 / deblock=1:0:0 / analyse=0x3:0x133 / me=umh / subme=7 / psy=1 / psy_rd=1.00:0.00 / mixed_ref=1 / me_range=16 / chroma_me=1 / trellis=1 / 8x8dct=1 / cqm=0 / deadzone=21,11 / fast_pskip=0 / chroma_qp_offset=-2 / threads=18 / lookahead_threads=3 / sliced_threads=0 / nr=0 / decimate=1 / interlaced=0 / bluray_compat=0 / constrained_intra=0 / bframes=3 / b_pyramid=2 / b_adapt=1 / b_bias=0 / direct=1 / weightb=1 / open_gop=0 / weightp=2 / keyint=250 / keyint_min=23 / scenecut=40 / intra_refresh=0 / rc_lookahead=40 / rc=2pass / mbtree=1 / bitrate=9015 / ratetol=1.0 / qcomp=0.60 / qpmin=0 / qpmax=69 / qpstep=4 / cplxblur=20.0 / qblur=0.5 / ip_ratio=1.40 / aq=1:1.00
Language                                 : English
Default                                  : Yes
Forced                                   : No

Audio
ID                                       : 2
Format                                   : DTS
Format/Info                              : Digital Theater Systems
Mode                                     : 16
Format settings, Endianness              : Big
Codec ID                                 : A_DTS
Duration                                 : 1h 44mn
Bit rate mode                            : Constant
Bit rate                                 : 1 509 Kbps
Channel(s)                               : 6 channels
Channel positions                        : Front: L C R, Side: L R, LFE
Sampling rate                            : 48.0 KHz
Frame rate                               : 93.750 fps (512 spf)
Bit depth                                : 24 bits
Compression mode                         : Lossy
Stream size                              : 1.10 GiB (14%)
Language                                 : English
Default                                  : Yes
Forced                                   : No

Menu
00:00:00.000                             : en:00:00:00.000
00:04:52.834                             : en:00:04:52.834
00:10:13.530                             : en:00:10:13.530
00:14:02.258                             : en:00:14:02.258
00:19:07.480                             : en:00:19:07.480
00:21:49.433                             : en:00:21:49.433
00:26:07.357                             : en:00:26:07.357
00:30:51.016                             : en:00:30:51.016
00:37:19.487                             : en:00:37:19.487
00:42:16.868                             : en:00:42:16.868
00:48:03.172                             : en:00:48:03.172
00:54:13.584                             : en:00:54:13.584
00:57:38.288                             : en:00:57:38.288
01:03:33.810                             : en:01:03:33.810
01:10:48.911                             : en:01:10:48.911
01:15:36.365                             : en:01:15:36.365
01:22:02.543                             : en:01:22:02.543
01:26:13.418                             : en:01:26:13.418
01:32:24.414                             : en:01:32:24.414
01:40:22.391                             : en:01:40:22.391



                                                                                                                                                                                                        
                                                                                                                                                                                                                                                                                                                                                                                                                                                                                                                                                                                                                                                                                                                                                                                                                            33e742d9aefbd85bed45883e005dff18.torrent (77.34 KB, 下载次数: 0)

回复

使用道具 举报

小黑屋|百度云资源论坛 |网站地图

本网站所有资源来自网络,如无意中侵犯了您的权益,请发邮件至 [email protected],立即清除相关链接

GMT+8, 2019-12-9 19:06 , Processed in 0.084240 second(s), 22 queries .

Powered by Discuz! X3.2

© 2001-2013 Comsenz Inc.

快速回复 返回顶部 返回列表