百度云资源论坛

 找回密码
 立即注册
搜索

最远的地方 The.Farthest.2017.1080p.BluRay.x264-HANDJOB 7.05GB

[复制链接]
百度云电影 发表于 2019-10-28 11:55:41 | 显示全部楼层 |阅读模式


帖子完整标题:最远的地方 The.Farthest.2017.1080p.BluRay.x264-HANDJOB 7.05GB




◎译  名 最远的地方
◎片  名 The Farthest
◎年  代 2017
◎产  地 爱尔兰
◎类  别 纪录片
◎语  言 英语
◎上映日期 2017-02-26(爱尔兰)
◎IMDb评分  8.1/10 from 3137 users
◎片  长 121分钟
◎导  演 Emer Reynolds
◎编  剧 Emer Reynolds
◎主  演 Frank Drake
       Carolyn Porco
       John Casani
       Lawrence Krauss
       Timothy Ferris
       Edward Stone
       Nick Sagan
       Larry Soderblom
       Charley Kohlhase
       Fran Bagenal
       James F. Bell
       Frank Locatell
       Suzanne Dodd
       Jon Lomberg
       Heidi Hammel


◎标  签 纪录片 | 宇宙 | 太空 | 科学 | 宇宙自然纪录片 | 旅行者 | 爱尔兰 | 2017

◎简  介  

  Is it humankind's greatest achievement? 12 billion miles away a tiny spaceship is leaving our Solar System and entering the void of deep space. It is the first human-made object ever to do so. Slowly dying within its heart is a plutonium generator that will beat for perhaps another decade before the lights on Voyager finally go out. But this little craft will travel on for millions of years, carrying a Golden Record bearing recordings and images of life on Earth. In all likelihood Voyager will outlive humanity and all our creations. It could be the only thing to mark our existence. Perhaps some day an alien will find it and wonder. The story of Voyager is an epic of human achievement, personal drama and almost miraculous success. Launched 16 days apart in Autumn 1977, the twin Voyager space probes have defied all the odds, survived countless near misses and almost 40 years later continue to beam revolutionary information across unimaginable distances. With less computing power than a ...
Video
ID                                       : 1
Format                                   : AVC
Format/Info                              : Advanced Video Codec
Format settings                          : CABAC / 5 Ref Frames
Format settings, CABAC                   : Yes
Format settings, Reference frames        : 5 frames
Codec ID                                 : V_MPEG4/ISO/AVC
Duration                                 : 1 h 55 min
Bit rate                                 : 8 262 kb/s
Width                                    : 1 920 pixels
Height                                   : 808 pixels
Display aspect ratio                     : 2.40:1
Frame rate mode                          : Constant
Frame rate                               : 25.000 FPS
Color space                              : YUV
Chroma subsampling                       : 4:2:0
Bit depth                                : 8 bits
Scan type                                : Progressive
Bits/(Pixel*Frame)                       : 0.213
Stream size                              : 6.69 GiB (95%)
Writing library                          : x264 core 157 r2969 d4099dd
Encoding settings                        : cabac=1 / ref=5 / deblock=1:-3:-3 / analyse=0x3:0x133 / me=umh / subme=11 / psy=1 / psy_rd=1.00:0.00 / mixed_ref=1 / me_range=32 / chroma_me=1 / trellis=2 / 8x8dct=1 / cqm=0 / deadzone=21,11 / fast_pskip=0 / chroma_qp_offset=-2 / threads=12 / lookahead_threads=3 / sliced_threads=0 / nr=0 / decimate=0 / interlaced=0 / bluray_compat=0 / constrained_intra=0 / bframes=16 / b_pyramid=2 / b_adapt=2 / b_bias=0 / direct=3 / weightb=1 / open_gop=0 / weightp=2 / keyint=250 / keyint_min=25 / scenecut=40 / intra_refresh=0 / rc_lookahead=60 / rc=crf / mbtree=0 / crf=16.4 / qcomp=0.64 / qpmin=0 / qpmax=69 / qpstep=4 / vbv_maxrate=62500 / vbv_bufsize=78125 / crf_max=0.0 / nal_hrd=none / filler=0 / ip_ratio=1.30 / pb_ratio=1.20 / aq=3:0.78
Language                                 : English
Default                                  : Yes
Forced                                   : No
Color range                              : Limited
Color primaries                          : BT.709
Transfer characteristics                 : BT.709
Matrix coefficients                      : BT.709

Audio
ID                                       : 2
Format                                   : AC-3
Format/Info                              : Audio Coding 3
Commercial name                          : Dolby Digital
Codec ID                                 : A_AC3
Duration                                 : 1 h 55 min
Bit rate mode                            : Constant
Bit rate                                 : 448 kb/s
Channel(s)                               : 6 channels
Channel layout                           : L R C LFE Ls Rs
Sampling rate                            : 48.0 kHz
Frame rate                               : 31.250 FPS (1536 SPF)
Bit depth                                : 16 bits
Compression mode                         : Lossy
Stream size                              : 371 MiB (5%)
Language                                 : English
Service kind                             : Complete Main
Default                                  : Yes
Forced                                   : No

Text
ID                                       : 3
Format                                   : UTF-8
Codec ID                                 : S_TEXT/UTF8
Codec ID/Info                            : UTF-8 Plain Text
Duration                                 : 1 h 55 min
Bit rate                                 : 103 b/s
Count of elements                        : 2639
Stream size                              : 86.9 KiB (0%)
Language                                 : English
Default                                  : No
Forced                                   : No

Menu
00:00:00.000                             : en:Chapter 1
00:04:38.880                             : en:Chapter 2
00:11:09.800                             : en:Chapter 3
00:16:26.440                             : en:Chapter 4
00:19:47.960                             : en:Chapter 5
00:23:49.600                             : en:Chapter 6
00:27:32.360                             : en:Chapter 7
00:37:24.240                             : en:Chapter 8
00:44:26.360                             : en:Chapter 9
00:51:59.640                             : en:Chapter 10
01:00:06.520                             : en:Chapter 11
01:06:06.840                             : en:Chapter 12
01:11:40.520                             : en:Chapter 13
01:14:55.480                             : en:Chapter 14
01:22:12.520                             : en:Chapter 15
01:27:26.080                             : en:Chapter 16
01:33:37.040                             : en:Chapter 17
01:39:35.640                             : en:Chapter 18
01:43:06.760                             : en:Chapter 19
01:47:32.760                             : en:Chapter 20
01:51:35.200                             : en:Chapter 21



                                                                                                                                                                                                        
                                                                                                                                                                                                                                                                                                                                                                                                                                                                                                                                                                                                                                                                                                                                                                                                                           6b35840fffeecdef87d6bedbcba85a05.torrent (35.78 KB, 下载次数: 0)

回复

使用道具 举报

小黑屋|百度云资源论坛 |网站地图

本网站所有资源来自网络,如无意中侵犯了您的权益,请发邮件至 [email protected],立即清除相关链接

GMT+8, 2019-12-6 03:47 , Processed in 0.103330 second(s), 22 queries .

Powered by Discuz! X3.2

© 2001-2013 Comsenz Inc.

快速回复 返回顶部 返回列表