百度云资源论坛

 找回密码
 立即注册
搜索

附加平庸 Extra.Ordinary.2019.1080p.BluRay.x264.DTS-FGT 8.57GB

[复制链接]
百度云资源 发表于 2019-10-28 11:55:41 | 显示全部楼层 |阅读模式


帖子完整标题:附加平庸 Extra.Ordinary.2019.1080p.BluRay.x264.DTS-FGT 8.57GB




◎译  名 附加平庸
◎片  名 Extra Ordinary
◎年  代 2019
◎产  地 爱尔兰 Ireland / 比利时 Belgium
◎类  别 喜剧 / 奇幻
◎语  言 英语
◎上映日期 2019-03-10(西南偏南电影节)
◎IMDb评分  7.1/10 from 514 users
◎导  演 Mike Ahern / Enda Loughman
◎编  剧 Mike Ahern / Demian Fox / Maeve Higgins / Enda Loughman
◎主  演 Maeve Higgins,
       巴里·沃德 Barry Ward
       威尔·福特 Will Forte


◎标  签 奇幻 | 爱尔兰 | 喜剧 | cult | 爱尔兰电影 | 惊悚 | 独立电影 | 电影

◎简  介  

  Rose, a sweet, small town driving instructor, is gifted with supernatural abilities, "The Talents", which mean she can talk to the spirit world. Rose has a love hate relationship with her abilities, after seeing what they did to her Dad, Vincent, and tries to ignore the constant small-time spiritual requests from locals - haunted rubbish bins, tractors, children's bikes, frying pans etc, etc. Yet when her help is requested by Sarah, a teenager whose father, Martin, is being haunted by his deceased nagging wife, she is very tempted...Martin seems like a very nice man! Meanwhile, in a large castle outside town, Christian Winter, a washed up rock star, has a sinister plan to sell his soul for renewed success. He needs to sacrifice a virgin and puts a spell on Sarah, leaving her in a levitating catatonic state. Martin, bewildered, asks Rose to help him save his daughter. Martin and Rose set about trying to break the spell which requires the speedy exorcism of many ghosts before the spell ...
Video
ID                                       : 1
Format                                   : AVC
Format/Info                              : Advanced Video Codec
Format settings                          : CABAC / 4 Ref Frames
Format settings, CABAC                   : Yes
Format settings, Reference frames        : 4 frames
Codec ID                                 : V_MPEG4/ISO/AVC
Duration                                 : 1 h 34 min
Bit rate                                 : 11.5 Mb/s
Width                                    : 1 920 pixels
Height                                   : 800 pixels
Display aspect ratio                     : 2.40:1
Frame rate mode                          : Constant
Frame rate                               : 24.000 FPS
Color space                              : YUV
Chroma subsampling                       : 4:2:0
Bit depth                                : 8 bits
Scan type                                : Progressive
Bits/(Pixel*Frame)                       : 0.312
Stream size                              : 7.58 GiB (88%)
Title                                    : Extra.Ordinary.2019.1080p.BluRay.x264.DTS-FGT
Writing library                          : x264 core 148 r2795M aaa9aa8
Encoding settings                        : cabac=1 / ref=4 / deblock=1:-2:-2 / analyse=0x3:0x113 / me=umh / subme=9 / psy=1 / psy_rd=1.00:0.15 / mixed_ref=1 / me_range=16 / chroma_me=1 / trellis=2 / 8x8dct=1 / cqm=0 / deadzone=21,11 / fast_pskip=1 / chroma_qp_offset=-3 / threads=48 / lookahead_threads=3 / sliced_threads=0 / nr=0 / decimate=1 / interlaced=0 / bluray_compat=0 / constrained_intra=0 / bframes=3 / b_pyramid=2 / b_adapt=1 / b_bias=0 / direct=3 / weightb=1 / open_gop=0 / weightp=2 / keyint=250 / keyint_min=25 / scenecut=40 / intra_refresh=0 / rc_lookahead=50 / rc=2pass / mbtree=1 / bitrate=11500 / ratetol=1.0 / qcomp=0.60 / qpmin=0 / qpmax=69 / qpstep=4 / cplxblur=20.0 / qblur=0.5 / vbv_maxrate=31250 / vbv_bufsize=31250 / nal_hrd=none / filler=0 / ip_ratio=1.40 / aq=1:1.00
Language                                 : English
Default                                  : Yes
Forced                                   : No

Audio
ID                                       : 2
Format                                   : DTS
Format/Info                              : Digital Theater Systems
Codec ID                                 : A_DTS
Duration                                 : 1 h 34 min
Bit rate mode                            : Constant
Bit rate                                 : 1 509 kb/s
Channel(s)                               : 6 channels
Channel layout                           : C L R Ls Rs LFE
Sampling rate                            : 48.0 kHz
Frame rate                               : 93.750 FPS (512 SPF)
Bit depth                                : 24 bits
Compression mode                         : Lossy
Stream size                              : 1 018 MiB (12%)
Title                                    : Extra.Ordinary.2019.1080p.BluRay.x264.DTS-FGT
Language                                 : English
Default                                  : Yes
Forced                                   : No

Menu
00:00:00.000                             : en:Chapter 01
00:10:08.541                             : en:Chapter 02
00:20:12.666                             : en:Chapter 03
00:28:46.500                             : en:Chapter 04
00:36:38.958                             : en:Chapter 05
00:46:45.250                             : en:Chapter 06
00:57:59.291                             : en:Chapter 07
01:06:36.541                             : en:Chapter 08
01:17:14.750                             : en:Chapter 09
01:28:53.458                             : en:Chapter 10



                                                                                                                                                                                                        
                                                                                                                                                                                                                                                                                                                                                                                                                                                                                                                                                                                                                                                                                                                                                                                                                         01daf4afa1749da6b2fbcc2eaa2804ec.torrent (43.38 KB, 下载次数: 0)

回复

使用道具 举报

小黑屋|百度云资源论坛 |网站地图

本网站所有资源来自网络,如无意中侵犯了您的权益,请发邮件至 [email protected],立即清除相关链接

GMT+8, 2019-12-9 18:39 , Processed in 0.104774 second(s), 22 queries .

Powered by Discuz! X3.2

© 2001-2013 Comsenz Inc.

快速回复 返回顶部 返回列表