百度云资源论坛

 找回密码
 立即注册
搜索

[左右格式] [BT下载]雷神3[3D左右]2017.1080p.3D.BluRay.Half-SBS.x264.DTS-HD.MA.7.1-F...

[复制链接]
电影首发 发表于 2018-2-25 08:02:00 | 显示全部楼层 |阅读模式

译  名 雷神3:诸神黄昏/雷神索尔3:诸神黄昏(台)/雷神奇侠3:诸神黄昏(港)/雷神3:诸神的黄昏
片  名 Thor: Ragnarok
年  代 2017
产  地 美国
类  别 动作/奇幻/冒险
语  言 英语
上映日期 2017-10-24(英国)/2017-11-03(美国)/2017-11-03(中国大陆)
IMDb评分  8.0/10 from 235,579 users
  
豆瓣评分 7.5/10 from 146,161 users
 
片  长 130分钟
导  演 塔伊加·维迪提 Taika Waititi
主  演 克里斯·海姆斯沃斯 Chris Hemsworth
      汤姆·希德勒斯顿 Tom Hiddleston
      凯特·布兰切特 Cate Blanchett
      伊德里斯·艾尔巴 Idris Elba
      杰夫·高布伦 Jeff Goldblum
      泰莎·汤普森 Tessa Thompson
      卡尔·厄本 Karl Urban
      马克·鲁弗洛 Mark Ruffalo
      安东尼·霍普金斯 Anthony Hopkins
      本尼迪克特·康伯巴奇 Benedict Cumberbatch
      塔伊加·维迪提 Taika Waititi
      瑞切尔·豪斯 Rachel House
      克兰西·布朗 Clancy Brown
      浅野忠信 Tadanobu Asano
      雷·史蒂文森 Ray Stevenson
      扎克瑞·莱维 Zachary Levi
      卢克·海姆斯沃斯 Luke Hemsworth
      马特·达蒙 Matt Damon
      山姆·尼尔 Sam Neill
      夏洛特·尼克道 Charlotte Nicdao
      斯坦·李 Stan Lee


简  介


  在“索科维亚战役”两年后,索尔(克里斯·海姆斯沃斯 饰)得知诸神黄昏的预言并希望全力阻止火焰巨人苏尔特尔毁灭阿斯加德。索尔与洛基(汤姆·希德勒斯顿 饰)在奇异博士(本尼迪克特·康伯巴奇 饰)的指引下找到了奥丁(安东尼·霍普金斯 饰)。奥丁向他们兄弟二人道出他们还有一位姐姐——“死亡女神”海拉(凯特·布兰切特 饰)。在一场战斗里雷神之锤被海拉所毁,索尔跌下彩虹桥而来到了萨卡星,成为阶下囚。失去了锤子的索尔被逼展开角斗士对决,而对手居然是自己的老战友绿巨人(马克·鲁弗洛 饰)。索尔必须与绿巨人、洛基等人并肩战斗,才能阻止海拉和即将到来的诸神黄昏。


获奖情况


  第16届美国视觉效果协会奖  (2018)
  最佳电影虚拟摄影(提名)
  最佳电影视觉效果合成(提名)


  第23届美国评论家选择电影奖  (2018)
  喜剧片最佳男主角(提名) 克里斯·海姆斯沃斯
  最佳动作片(提名)
  最佳视觉效果(提名)


  第4届豆瓣电影年度榜单  (2017)
  评分最高的科幻/动作片(提名)
  11月最受关注电影(提名)


  第3届豆瓣电影年度榜单  (2016)
  最值得期待的外语电影(提名)






Video
ID                                       : 1
Format                                   : AVC
Format/Info                              : Advanced Video Codec
Format profile                           : mailto:[email protected]
Format settings                          : CABAC / 3 Ref Frames
Format settings, CABAC                   : Yes
Format settings, ReFrames                : 3 frames
Codec ID                                 : V_MPEG4/ISO/AVC
Duration                                 : 2 h 10 min
Bit rate                                 : 15.5 Mb/s
Width                                    : 1 920 pixels
Height                                   : 1 080 pixels
Display aspect ratio                     : 16:9
Frame rate mode                          : Constant
Frame rate                               : 23.976 (24000/1001) FPS
Color space                              : YUV
Chroma subsampling                       : 4:2:0
Bit depth                                : 8 bits
Scan type                                : Progressive
Bits/(Pixel*Frame)                       : 0.312
Stream size                              : 14.1 GiB (66%)
Title                                    : Thor.Ragnarok.2017.1080p.3D.BluRay.Half-SBS.x264.DTS-HD.MA.7.1-FGT
Writing library                          : x264 core 148
Encoding settings                        : cabac=1 / ref=3 / deblock=1:-1:-1 / analyse=0x3:0 / me=hex / subme=5 / psy=1 / psy_rd=1.00:0.00 / mixed_ref=0 / me_range=16 / chroma_me=1 / trellis=1 / 8x8dct=1 / cqm=0 / deadzone=21,11 / fast_pskip=0 / chroma_qp_offset=0 / threads=24 / lookahead_threads=6 / sliced_threads=0 / nr=0 / decimate=1 / interlaced=0 / bluray_compat=0 / constrained_intra=0 / bframes=2 / b_pyramid=0 / b_adapt=1 / b_bias=0 / direct=1 / weightb=0 / open_gop=0 / weightp=0 / keyint=24 / keyint_min=2 / scenecut=40 / intra_refresh=0 / rc=abr / mbtree=0 / bitrate=15500 / ratetol=1.0 / qcomp=0.60 / qpmin=0 / qpmax=69 / qpstep=4 / ip_ratio=1.40 / pb_ratio=1.30 / aq=1:1.00
Default                                  : Yes
Forced                                   : No
Color range                              : Limited
Color primaries                          : BT.709
Transfer characteristics                 : BT.709
Matrix coefficients                      : BT.709


Audio #1
ID                                       : 2
Format                                   : DTS
Format/Info                              : Digital Theater Systems
Format profile                           : MA / Core
Codec ID                                 : A_DTS
Duration                                 : 2 h 10 min
Bit rate mode                            : Variable / Constant
Bit rate                                 : 4 891 kb/s / 1 509 kb/s
Channel(s)                               : 8 channels / 6 channels
Channel positions                        : Front: L C R, Side: L R, Back: L R, LFE / Front: L C R, Side: L R, LFE
Sampling rate                            : 48.0 kHz
Frame rate                               : 93.750 FPS (512 SPF)
Bit depth                                : 24 bits
Compression mode                         : Lossless / Lossy
Stream size                              : 4.46 GiB (21%)
Title                                    : Thor.Ragnarok.2017.1080p.3D.BluRay.Half-SBS.x264.DTS-HD.MA.7.1-FGT
Language                                 : English
Default                                  : Yes
Forced                                   : No


Audio #2
ID                                       : 3
Format                                   : DTS
Format/Info                              : Digital Theater Systems
Codec ID                                 : A_DTS
Duration                                 : 2 h 10 min
Bit rate mode                            : Constant
Bit rate                                 : 1 509 kb/s
Channel(s)                               : 6 channels
Channel positions                        : Front: L C R, Side: L R, LFE
Sampling rate                            : 48.0 kHz
Frame rate                               : 93.750 FPS (512 SPF)
Bit depth                                : 24 bits
Compression mode                         : Lossy
Stream size                              : 1.38 GiB (6%)
Title                                    : Thor.Ragnarok.2017.1080p.3D.BluRay.Half-SBS.x264.DTS-HD.MA.7.1-FGT
Language                                 : English
Default                                  : No
Forced                                   : No


Audio #3
ID                                       : 4
Format                                   : AC-3
Format/Info                              : Audio Coding 3
Codec ID                                 : A_AC3
Duration                                 : 2 h 10 min
Bit rate mode                            : Constant
Bit rate                                 : 320 kb/s
Channel(s)                               : 2 channels
Channel positions                        : Front: L R
Sampling rate                            : 48.0 kHz
Frame rate                               : 31.250 FPS (1536 SPF)
Bit depth                                : 16 bits
Compression mode                         : Lossy
Stream size                              : 299 MiB (1%)
Title                                    : Thor.Ragnarok.2017.1080p.3D.BluRay.Half-SBS.x264.DTS-HD.MA.7.1-FGT
Language                                 : English
Service kind                             : Complete Main
Default                                  : No
Forced                                   : No


Audio #4
ID                                       : 5
Format                                   : AC-3
Format/Info                              : Audio Coding 3
Codec ID                                 : A_AC3
Duration                                 : 2 h 10 min
Bit rate mode                            : Constant
Bit rate                                 : 512 kb/s
Channel(s)                               : 6 channels
Channel positions                        : Front: L C R, Side: L R, LFE
Sampling rate                            : 48.0 kHz
Frame rate                               : 31.250 FPS (1536 SPF)
Bit depth                                : 16 bits
Compression mode                         : Lossy
Stream size                              : 478 MiB (2%)
Title                                    : Thor.Ragnarok.2017.1080p.3D.BluRay.Half-SBS.x264.DTS-HD.MA.7.1-FGT
Language                                 : French
Service kind                             : Complete Main
Default                                  : No
Forced                                   : No


Audio #5
ID                                       : 6
Format                                   : AC-3
Format/Info                              : Audio Coding 3
Codec ID                                 : A_AC3
Duration                                 : 2 h 10 min
Bit rate mode                            : Constant
Bit rate                                 : 512 kb/s
Channel(s)                               : 6 channels
Channel positions                        : Front: L C R, Side: L R, LFE
Sampling rate                            : 48.0 kHz
Frame rate                               : 31.250 FPS (1536 SPF)
Bit depth                                : 16 bits
Compression mode                         : Lossy
Stream size                              : 478 MiB (2%)
Title                                    : Thor.Ragnarok.2017.1080p.3D.BluRay.Half-SBS.x264.DTS-HD.MA.7.1-FGT
Language                                 : German
Service kind                             : Complete Main
Default                                  : No
Forced                                   : No


Text #1
ID                                       : 7
Format                                   : PGS
Muxing mode                              : zlib
Codec ID                                 : S_HDMV/PGS
Codec ID/Info                            : Picture based subtitle format used on BDs/HD-DVDs
Duration                                 : 2 h 10 min
Bit rate                                 : 51.5 kb/s
Count of elements                        : 4162
Stream size                              : 47.9 MiB (0%)
Title                                    : English-PGS
Language                                 : English
Default                                  : No
Forced                                   : No


Text #2
ID                                       : 8
Format                                   : PGS
Muxing mode                              : zlib
Codec ID                                 : S_HDMV/PGS
Codec ID/Info                            : Picture based subtitle format used on BDs/HD-DVDs
Duration                                 : 2 h 9 min
Bit rate                                 : 35.7 kb/s
Count of elements                        : 3126
Stream size                              : 33.0 MiB (0%)
Title                                    : French-PGS
Language                                 : French
Default                                  : No
Forced                                   : No


Text #3
ID                                       : 9
Format                                   : PGS
Muxing mode                              : zlib
Codec ID                                 : S_HDMV/PGS
Codec ID/Info                            : Picture based subtitle format used on BDs/HD-DVDs
Duration                                 : 2 h 9 min
Bit rate                                 : 45.5 kb/s
Count of elements                        : 3132
Stream size                              : 42.1 MiB (0%)






Thor.Ragnarok.2017.1080p.3D.BluRay.Half-SBS.x264.DTS-HD.MA.7.1-FGT[bt天堂 www.btbt4.com].torrent (53.6 KB, 下载次数: 0)

回复

使用道具 举报

小黑屋|百度云资源论坛 |网站地图

本网站所有资源来自网络,如无意中侵犯了您的权益,请发邮件至 [email protected],立即清除相关链接

GMT+8, 2021-3-7 15:02 , Processed in 0.112644 second(s), 22 queries .

Powered by Discuz! X3.2

© 2001-2013 Comsenz Inc.

快速回复 返回顶部 返回列表